<?xml version="1.0" standalone="no"?>
<!DOCTYPE svg PUBLIC "-//W3C//DTD SVG 1.1//EN" "http://www.w3.org/Graphics/SVG/1.1/DTD/svg11.dtd" >
<svg xmlns="http://www.w3.org/2000/svg">
<metadata>Generated by IcoMoon</metadata>
<defs>
<font id="icomoon" horiz-adv-x="1024">
<font-face units-per-em="1024" ascent="960" descent="-64" />
<missing-glyph horiz-adv-x="1024" />
<glyph unicode="&#x20;" horiz-adv-x="512" d="" />
<glyph unicode="&#xe900;" glyph-name="rating-football" d="M512 960c-282.767 0-512-229.233-512-512 0-282.765 229.233-512 512-512 282.765 0 512 229.235 512 512-0.316 282.633-229.367 511.683-512 512zM530.274 812.392l177.993 71.15c20.198-9.142 39.74-19.675 58.483-31.525l0.465-0.292c18.419-11.666 36.019-24.575 52.685-38.633l1.434-1.25c7.475-6.367 14.741-12.958 21.807-19.759 0.892-0.875 1.826-1.708 2.718-2.6 7.407-7.234 14.583-14.692 21.525-22.367 0.576-0.65 1.126-1.333 1.698-1.984 6.093-6.825 11.951-13.891 17.634-21.075 1.37-1.708 2.735-3.417 4.058-5.125 6.17-7.983 12.134-16.108 17.766-24.492l-35.482-150.833-174.575-58.2-168.166 134.559-0.043 172.425zM133.208 738.833c1.325 1.708 2.675 3.416 4.042 5.117 5.617 7.125 11.425 14.075 17.425 20.858 0.65 0.716 1.25 1.45 1.891 2.167 6.9 7.692 14.042 15.142 21.442 22.358 0.85 0.833 1.7 1.708 2.592 2.475 7.008 6.758 14.217 13.308 21.625 19.642l1.708 1.433c16.517 13.958 33.95 26.784 52.183 38.4l0.667 0.425c18.633 11.825 38.050 22.342 58.133 31.492l178.809-70.808v-172.375l-168.176-134.532-174.575 58.090-35.483 150.833c5.683 8.367 11.583 16.475 17.716 24.425zM112.642 186.108c-5.017 7.65-9.817 15.441-14.392 23.386l-1.108 1.916c-4.55 7.898-8.858 15.932-12.917 24.090l-0.142 0.26c-8.55 17.165-16.058 34.833-22.475 52.907v0.166c-3.034 8.533-5.8 17.276-8.358 26.069l-0.925 3.238c-2.342 8.26-4.467 16.61-6.367 25.054-0.167 0.823-0.375 1.609-0.542 2.423-4.192 19.068-7.2 38.366-9.017 57.809l104.192 125.022 173.367-57.783 50.317-201.246-82.675-110.003-168.958 26.692zM625.651-16.090c-8.533-2.121-17.293-3.942-26.052-5.585-1.225-0.243-2.475-0.444-3.699-0.666-7.458-1.335-15.002-2.475-22.558-3.409-2.018-0.26-4.015-0.533-6.025-0.777-7.019-0.815-14.101-1.434-21.201-1.941-2.231-0.149-4.442-0.375-6.673-0.516-9.075-0.559-18.227-0.883-27.443-0.883-8.444 0-16.832 0.226-25.173 0.666-1.011 0-1.975 0.166-2.987 0.243-7.424 0.422-14.814 0.981-22.191 1.698l-0.849 0.158c-16.158 1.754-32.226 4.318-48.125 7.676l-100.95 158.059 81.375 108.51h237.799l82.709-109.227-87.957-154.005zM978.709 345.6c-0.175-0.815-0.375-1.609-0.55-2.423-1.907-8.435-4.032-16.785-6.366-25.050l-0.917-3.243c-2.569-8.794-5.325-17.502-8.367-26.069v-0.166c-6.417-18.074-13.918-35.742-22.477-52.907l-0.141-0.26c-4.083-8.166-8.384-16.196-12.915-24.090l-1.109-1.916c-4.548-7.966-9.34-15.744-14.366-23.351l-168.384-26.551-83.251 109.909 50.291 201.199 173.367 57.783 104.192-125.022c-1.809-19.452-4.817-38.767-9.007-57.843z" />
<glyph unicode="&#xe901;" glyph-name="rating-live-bk" d="M557.687 678.883c-25.399-25.344-66.564-25.344-91.964 0-25.391 25.344-25.391 66.438 0 91.781 25.399 25.344 66.564 25.344 91.964 0 25.391-25.344 25.391-66.438 0-91.781zM646.511 580.551c-7.919 0-15.842 3.023-21.875 9.078-12.062 12.078-12.036 31.648 0.043 43.703 24.474 24.43 37.952 56.906 37.952 91.445s-13.478 67.016-37.952 91.445c-12.079 12.062-12.105 31.625-0.043 43.711 12.058 12.078 31.625 12.102 43.703 0.039 36.181-36.109 56.102-84.117 56.102-135.195 0-51.070-19.921-99.086-56.102-135.195-6.029-6.024-13.926-9.031-21.828-9.031zM716.42 489.557c-7.923 0-15.846 3.021-21.875 9.071-12.062 12.083-12.041 31.646 0.038 43.709 48.828 48.734 75.725 113.524 75.725 182.437s-26.897 133.703-75.725 182.437c-12.079 12.063-12.1 31.625-0.038 43.711 12.062 12.078 31.625 12.102 43.703 0.039 60.531-60.414 93.871-140.742 93.867-226.187 0-85.445-33.335-165.781-93.867-226.193-6.033-6.016-13.931-9.024-21.828-9.024zM376.739 580.548c-7.898 0-15.797 3.008-21.836 9.031-36.18 36.109-56.102 84.125-56.102 135.195 0 51.078 19.922 99.086 56.102 135.195 12.078 12.062 31.648 12.047 43.703-0.039 12.063-12.078 12.039-31.648-0.039-43.711-24.477-24.43-37.953-56.906-37.953-91.445s13.477-67.015 37.953-91.445c12.078-12.055 12.102-31.625 0.039-43.703-6.031-6.047-13.953-9.078-21.867-9.078zM306.833 489.557c-7.906 0-15.805 3.008-21.836 9.033-60.531 60.413-93.867 140.741-93.867 226.186 0 85.453 33.336 165.78 93.867 226.195 12.078 12.055 31.648 12.039 43.703-0.047 12.063-12.078 12.039-31.641-0.039-43.703-48.828-48.734-75.727-113.523-75.727-182.437s26.898-133.711 75.727-182.445c12.078-12.061 12.102-31.623 0.039-43.711-6.031-6.046-13.953-9.071-21.867-9.071zM918.959 436.13h-814.662c-39.93 0-72.297-32.367-72.297-72.29v-355.537c0-39.927 32.367-72.299 72.297-72.299h814.654c39.932 0 72.299 32.371 72.299 72.299v355.537c0 39.923-32.367 72.29-72.29 72.29zM269.742 28.766h-113.867c-17.062 0-30.898 13.833-30.898 30.903v252.796c0 17.062 13.836 30.908 30.898 30.908 17.071 0 30.906-13.837 30.906-30.908v-221.888h82.961c17.070 0 30.906-13.837 30.906-30.908s-13.836-30.903-30.906-30.903zM396.398 59.669c0-17.071-13.836-30.903-30.906-30.903s-30.906 13.833-30.906 30.903v252.796c0 17.062 13.836 30.908 30.906 30.908s30.906-13.837 30.906-30.908v-252.796zM656.427 303.531l-76.318-252.791c-0.009-0.021-0.017-0.047-0.026-0.068-8.286-28.288-50.547-27.593-59.123 0-0.009 0.021-0.017 0.047-0.026 0.068l-76.318 252.791c-4.928 16.341 4.314 33.583 20.655 38.524 16.329 4.928 33.587-4.314 38.515-20.659l46.737-154.786 46.733 154.786c4.937 16.346 22.178 25.596 38.524 20.659 16.337-4.941 25.587-22.182 20.646-38.524zM846.562 232.887c17.071 0 30.903-13.837 30.903-30.903 0-17.062-13.833-30.908-30.903-30.908h-87.706v-80.499h104.354c17.067 0 30.903-13.837 30.903-30.908s-13.837-30.903-30.903-30.903h-135.258c-17.071 0-30.908 13.833-30.908 30.903v252.796c0 17.062 13.837 30.908 30.908 30.908h139.422c17.062 0 30.903-13.837 30.903-30.908s-13.841-30.903-30.903-30.903h-108.527v-48.674h87.714z" />
<glyph unicode="&#xe902;" glyph-name="rating-mma" d="M648.529 516.271h-68.262c-119.501 0-222.268-38.195-273.069-93.542v-290.795c50.801-55.398 153.602-93.534 273.069-93.534h68.262c75.366 0 136.538 106.999 136.538 238.929 0 131.942-61.171 238.942-136.538 238.942zM102.401 413.871h136.53v-273.071h-136.53v273.071zM580.271 584.529h68.258c83.895 0 152.772-68.403 184.994-171.797l88.077 308.337-136.529-68.27-0.043 170.67-136.499-102.4-238.93 136.53 103.894-277.074c21.803 2.345 43.972 4.004 66.778 4.004z" />
<glyph unicode="&#xe903;" glyph-name="rating-presents" d="M192 660h290.001v80h59.998v-80h290.001c16.567 0 29.999 13.432 29.999 30v80c0 16.568-13.431 30-29.999 30h-142.071c7.697 15.014 12.070 32 12.070 50 0 60.654-49.344 110-109.999 110-31.501 0-59.93-13.33-80-34.62-20.070 21.29-48.499 34.62-80 34.62-60.654 0-110-49.346-110-110 0-18 4.374-34.986 12.070-50h-142.070c-16.568 0-30-13.432-30-30v-80c0-16.568 13.432-30 30-30zM592 900c27.571 0 50.001-22.43 50.001-50s-22.43-50-50.001-50h-50.001v50c0 27.57 22.43 50 50.001 50zM382 850c0 27.57 22.43 50 50 50 27.571 0 50.001-22.43 50.001-50v-50h-50.001c-27.57 0-50 22.43-50 50zM1003.213 340.975c-27.098 30.485-73.698 33.455-104.448 6.652l-119.569-104.218c0.055-1.523 0.119-3.046 0.119-4.587 0-74.419-60.544-134.967-134.967-134.967h-160.798c-16.567 0-29.999 13.436-29.999 30.003s13.431 29.999 29.999 29.999h160.823c41.391 0 74.944 33.553 74.944 74.944 0 41.408-33.583 74.97-74.991 74.944l-156.578-0.098c-42.795 48.666-101.933 78.144-166.571 83.012-64.768 4.877-127.77-15.497-177.416-57.365l-14.048-11.849 147.5-344.171h380.924c37.056 0 72.649 13.636 100.215 38.391l238.963 214.566c30.451 27.341 33.088 74.15 5.897 104.742zM541.999 373.679l102.289 0.064c49.617 0 93.043-26.854 116.51-66.778l61.201 53.346v239.689h-280v-226.321zM302.346 457.37c7.738 0 15.588-0.299 23.332-0.879 57.182-4.309 110.909-24.119 156.323-56.986v200.495h-280.001v-159.654c32.072 11.166 65.986 17.024 100.346 17.024zM20.184 273.579c-7.312-3.132-13.082-9.041-16.038-16.431-2.956-7.386-2.854-15.646 0.28-22.959l120-280c4.876-11.375 15.95-18.189 27.588-18.189 3.942 0 7.95 0.781 11.804 2.436l56.886 24.375-143.632 335.147-56.888-24.38z" />
<glyph unicode="&#xe904;" glyph-name="rating-apps" horiz-adv-x="597" d="M517.961 955.969h-438.596c-43.812 0-79.369-35.557-79.369-79.37v-857.194c0-43.81 35.557-79.369 79.369-79.369h438.596c43.814 0 79.369 35.558 79.369 79.369 0 285.965 0 572.187 0 857.194 0 43.812-35.554 79.37-79.369 79.37zM303.663 886.123h53.972c8.73 0 15.874-6.985 15.874-15.874 0-8.73-7.144-15.874-15.874-15.874h-53.972c-8.889 0-15.874 7.143-15.874 15.874 0 8.89 6.985 15.874 15.874 15.874zM239.692 886.123h5.556c8.89 0 15.874-6.985 15.874-15.874 0-8.73-6.985-15.874-15.874-15.874h-5.556c-8.73 0-15.874 7.143-15.874 15.874 0 8.89 7.143 15.874 15.874 15.874zM325.728 9.566h-54.129c-8.732 0-15.874 7.142-15.874 15.872 0 8.892 7.142 15.876 15.874 15.876h54.129c8.731 0 15.874-6.985 15.874-15.876 0-8.73-7.144-15.872-15.874-15.872zM548.672 111.159h-500.020v673.688h500.020v-673.688zM268.408 145.762h60.515c11.002 0 19.923 9.523 19.923 21.274v64.922c0 11.746-8.92 21.274-19.923 21.274h-60.515c-11.002 0-19.924-9.527-19.924-21.274v-64.922c0-11.75 8.922-21.274 19.924-21.274zM113.629 303.232h60.515c11.002 0 19.924 9.681 19.924 21.427v64.768c0 11.746-8.921 21.269-19.924 21.269h-60.515c-11.002 0-20.072-9.523-20.072-21.269v-64.768c0-11.746 9.070-21.427 20.072-21.427zM423.183 303.232h60.516c10.999 0 20.070 9.681 20.070 21.427v64.768c0 11.746-9.071 21.269-20.070 21.269h-60.516c-11.003 0-19.923-9.523-19.923-21.269v-64.768c0-11.746 8.92-21.427 19.923-21.427zM423.183 145.762h60.516c10.999 0 20.070 9.523 20.070 21.274v64.922c0 11.746-9.071 21.274-20.070 21.274h-60.516c-11.003 0-19.923-9.527-19.923-21.274v-64.922c0-11.75 8.92-21.274 19.923-21.274zM113.629 145.762h60.515c11.002 0 19.924 9.523 19.924 21.274v64.922c0 11.746-8.921 21.274-19.924 21.274h-60.515c-11.002 0-20.072-9.527-20.072-21.274v-64.922c0-11.75 9.070-21.274 20.072-21.274zM268.408 303.232h60.515c11.002 0 19.923 9.681 19.923 21.427v64.768c0 11.746-8.92 21.269-19.923 21.269h-60.515c-11.002 0-19.924-9.523-19.924-21.269v-64.768c0-11.746 8.922-21.427 19.924-21.427z" />
<glyph unicode="&#xe962;" glyph-name="star-full" d="M457.499 906.895c5.575 9.503 13.538 17.385 23.098 22.861s20.388 8.356 31.407 8.356c11.017 0 21.844-2.882 31.403-8.356 9.565-5.477 17.526-13.357 23.101-22.861 0 0 134.938-229.6 135.101-229.6 1.344-2.354 3.171-4.393 5.367-5.99s4.701-2.708 7.351-3.266l259.966-57.482c10.77-2.391 20.734-7.548 28.904-14.964 8.163-7.416 14.259-16.832 17.677-27.321s4.047-21.688 1.814-32.493c-2.232-10.804-7.237-20.841-14.532-29.119l-176.731-199.197c-1.807-2.029-3.171-4.415-3.996-7.002-0.831-2.595-1.098-5.328-0.793-8.030l25.764-265.117c1.034-10.979-0.811-22.041-5.359-32.094-4.548-10.047-11.639-18.736-20.57-25.213-8.892-6.508-19.346-10.561-30.306-11.753-10.96-1.186-22.041 0.526-32.127 4.979l-244.115 106.376c-2.505 1.065-5.201 1.61-7.922 1.61-2.729 0-5.424-0.545-7.931-1.61l-244.113-106.376c-10.108-4.395-21.187-6.083-32.144-4.883-10.957 1.193-21.413 5.22-30.337 11.696-8.923 6.469-16.003 15.153-20.542 25.2s-6.38 21.096-5.341 32.070l25.768 265.117c0.305 2.702 0.035 5.442-0.79 8.030s-2.189 4.979-4 7.002l-176.727 199.199c-7.293 8.278-12.303 18.314-14.533 29.118s-1.606 22.004 1.812 32.493c3.417 10.489 9.512 19.907 17.68 27.321s18.129 12.573 28.899 14.964l259.972 57.482c2.666 0.577 5.186 1.697 7.402 3.289s4.081 3.624 5.478 5.966l134.94 229.597z" />
<glyph unicode="&#xe967;" glyph-name="star" horiz-adv-x="1075" d="M480.554 927.383l-140.987-239.876c-1.46-2.447-3.409-4.569-5.726-6.231s-4.949-2.829-7.736-3.431l-271.621-60.056c-11.252-2.497-21.659-7.885-30.194-15.632s-14.902-17.584-18.474-28.542c-3.572-10.959-4.226-22.66-1.895-33.947s7.564-21.773 15.183-30.422l184.649-208.115c1.892-2.12 3.317-4.613 4.179-7.315s1.143-5.56 0.824-8.383l-26.921-276.98c-1.086-11.465 0.837-23.015 5.58-33.511s12.14-19.568 21.464-26.328c9.323-6.766 20.249-10.974 31.697-12.219 11.448-1.253 23.024 0.51 33.585 5.11l255.055 111.128c2.62 1.113 5.436 1.683 8.286 1.683 2.842 0 5.659-0.569 8.283-1.683l255.053-111.136c10.562-4.592 22.14-6.355 33.584-5.11 11.45 1.246 22.378 5.46 31.702 12.219 9.324 6.766 16.719 15.838 21.464 26.334s6.667 22.046 5.58 33.511l-26.925 276.98c-0.318 2.816-0.034 5.679 0.828 8.383s2.286 5.195 4.175 7.309l184.651 208.12c7.621 8.648 12.856 19.134 15.182 30.422 2.332 11.287 1.676 22.989-1.895 33.947s-9.933 20.796-18.468 28.544c-8.536 7.746-18.945 13.134-30.198 15.632l-271.619 60.058c-2.776 0.58-5.394 1.741-7.68 3.407-2.293 1.666-4.201 3.797-5.607 6.255-0.172 0-141.16 239.875-141.16 239.875-5.824 9.93-14.148 18.164-24.134 23.886-9.993 5.722-21.305 8.731-32.815 8.731-11.512 0-22.824-3.010-32.815-8.731s-18.31-13.955-24.134-23.886l-0.001 0.001zM537.503 779.144l90.938-154.618c10.093-17.176 23.631-32.081 39.753-43.782 16.129-11.7 34.492-19.943 53.954-24.212l175.155-38.829-119.067-134.084c-13.187-14.95-23.167-32.458-29.31-51.429-6.143-18.965-8.33-38.997-6.414-58.845l17.435-178.607-164.459 71.786c-18.302 7.939-38.037 12.041-57.983 12.041-19.95 0-39.686-4.102-57.986-12.041l-164.458-71.786 17.43 178.607c1.914 19.846-0.269 39.879-6.414 58.845-6.145 18.973-16.12 36.48-29.307 51.429l-119.072 134.084 175.154 38.829c19.461 4.267 37.83 12.51 53.954 24.21s29.659 26.606 39.753 43.782l90.945 154.618z" />
<glyph unicode="&#xe968;" glyph-name="search" d="M447.839 64.137c247.333 0 447.837 200.505 447.837 447.841s-200.502 447.835-447.837 447.835c-247.335 0-447.838-200.503-447.838-447.837s200.505-447.838 447.838-447.838zM447.839 831.858c176.667 0 319.881-143.216 319.881-319.883s-143.214-319.882-319.881-319.882c-176.668 0-319.884 143.214-319.884 319.882s143.218 319.883 319.884 319.883zM959.647-63.812c17.006-0.102 33.353 6.576 45.429 18.549 25.088 24.883 25.249 65.39 0.366 90.478-0.124 0.124-0.241 0.249-0.366 0.373l-240.552 240.55c-25.973 25.087-67.362 24.37-92.45-1.599s-24.371-67.358 1.599-92.446l240.552-237.356c12.076-11.973 28.416-18.651 45.422-18.549z" />
<glyph unicode="&#xe96a;" glyph-name="Bitcoin-Cash" d="M1024 448c0-282.769-229.231-512-512-512s-512 229.231-512 512c0 282.77 229.23 512 512 512s512-229.23 512-512zM64.915 448c0-246.916 200.166-447.087 447.085-447.087 246.916 0 447.087 200.171 447.087 447.087 0 246.918-200.171 447.085-447.087 447.085-246.918 0-447.085-200.166-447.085-447.085zM512 82.287c201.98 0 365.713 163.733 365.713 365.713 0 201.978-163.733 365.713-365.713 365.713-201.978 0-365.713-163.736-365.713-365.713 0-201.98 163.736-365.713 365.713-365.713zM442.035 712.169l56.516 15.145 17.617-65.733 4.915 1.318c37.717 10.106 69.717 7.574 95.996-7.597 26.577-14.646 43.81-36.683 51.695-66.111 6.775-25.283 5.602-48.254-3.524-68.913-9.122-20.659-23.283-35.78-42.483-45.367 23.27 2.679 45.184-3.665 65.741-19.038 20.553-15.369 34.274-35.904 41.161-61.602 8.661-32.329 5.257-61.897-10.219-88.7s-42.278-45.312-80.41-55.531l-11.759-3.149 15.147-56.521-56.521-15.147-15.147 56.521-56.521-15.142 15.147-56.521-56.521-15.147-15.147 56.521-43.744-11.721-111.116 414.691 43.746 11.722-17.613 65.733 56.52 15.145 17.613-65.733 56.522 15.145-17.613 65.733zM546.291 491.733c14.921 3.998 25.621 11.311 32.107 21.931 6.481 10.624 7.949 22.565 4.395 35.828s-11.004 22.819-22.34 28.665c-11.038 6.372-23.808 7.614-38.319 3.727l-110.665-29.653 24.154-90.151 110.669 29.653zM595.546 320.35c16.58 4.442 28.523 12.083 35.836 22.929 7.202 11.26 8.802 24.35 4.804 39.27-3.665 13.679-11.486 23.799-23.462 30.362-12.087 6.98-26.419 8.247-42.999 3.806l-113.775-30.485 25.822-96.367 113.775 30.485z" />
<glyph unicode="&#xe96b;" glyph-name="Calendar" d="M746.412 846.002v76.985c0 20.233-16.777 37.012-37.012 37.012-20.229 0-37.012-16.779-37.012-37.012v-74.024h-320.766v74.024c0 20.233-16.779 37.012-37.012 37.012s-37.012-16.779-37.012-37.012v-76.985c-133.243-12.337-197.89-91.79-207.76-209.733-0.987-14.311 10.857-26.155 24.675-26.155h834.987c14.313 0 26.157 12.337 24.677 26.155-9.871 117.944-74.521 197.396-207.764 209.733zM906.795 536.085h-789.589c-27.142 0-49.349-22.208-49.349-49.35v-303.988c0-148.047 74.024-246.748 246.746-246.748h394.791c172.724 0 246.748 98.701 246.748 246.748v303.988c0 27.142-22.207 49.35-49.348 49.35zM374.316 123.031c-2.468-1.972-4.935-4.442-7.402-5.922-2.96-1.972-5.922-3.453-8.882-4.442-2.96-1.48-5.922-2.464-8.882-2.96-3.454-0.491-6.415-0.983-9.87-0.983-6.415 0-12.831 1.48-18.752 3.944-6.415 2.469-11.351 5.922-16.285 10.364-8.882 9.38-14.311 22.207-14.311 35.040s5.429 25.66 14.311 35.040c4.935 4.442 9.869 7.894 16.285 10.364 8.882 3.944 18.752 4.933 28.622 2.96 2.96-0.498 5.922-1.48 8.882-2.96 2.96-0.989 5.922-2.469 8.882-4.442l7.402-5.922c8.882-9.38 14.311-22.207 14.311-35.040s-5.429-25.66-14.311-35.040zM374.316 295.755c-9.376-8.882-22.207-14.313-35.038-14.313s-25.662 5.431-35.038 14.313c-8.882 9.375-14.311 22.207-14.311 35.040 0 12.827 5.429 25.66 14.311 35.033 13.818 13.819 35.531 18.26 53.79 10.365 6.415-2.468 11.844-5.923 16.285-10.365 8.882-9.375 14.311-22.207 14.311-35.033 0-12.833-5.429-25.666-14.311-35.040zM547.039 123.031c-9.377-8.882-22.207-14.307-35.038-14.307s-25.662 5.424-35.038 14.307c-8.882 9.38-14.311 22.207-14.311 35.040s5.428 25.66 14.311 35.040c18.259 18.257 51.817 18.257 70.076 0 8.882-9.38 14.311-22.207 14.311-35.040s-5.428-25.66-14.311-35.040zM547.039 295.755c-2.468-1.972-4.935-3.949-7.402-5.922-2.96-1.972-5.922-3.453-8.882-4.442-2.96-1.48-5.922-2.469-8.882-2.96-3.455-0.491-6.415-0.989-9.87-0.989-12.831 0-25.662 5.431-35.038 14.313-8.882 9.375-14.311 22.207-14.311 35.040 0 12.827 5.428 25.66 14.311 35.033 4.442 4.442 9.87 7.897 16.285 10.365 18.259 7.896 39.973 3.454 53.79-10.365 8.882-9.375 14.311-22.207 14.311-35.033 0-12.833-5.428-25.666-14.311-35.040zM719.758 123.031c-9.375-8.882-22.207-14.307-35.033-14.307-12.833 0-25.666 5.424-35.040 14.307-8.882 9.38-14.313 22.207-14.313 35.040s5.431 25.66 14.313 35.040c18.257 18.257 51.817 18.257 70.074 0 8.882-9.38 14.313-22.207 14.313-35.040s-5.431-25.66-14.313-35.040zM719.758 295.755c-2.464-1.972-4.933-3.949-7.402-5.922-2.96-1.972-5.922-3.453-8.882-4.442-2.96-1.48-5.922-2.469-8.882-2.96-3.453-0.491-6.905-0.989-9.866-0.989-12.833 0-25.666 5.431-35.040 14.313-8.882 9.375-14.313 22.207-14.313 35.040 0 12.827 5.431 25.66 14.313 35.033 4.933 4.442 9.871 7.897 16.285 10.365 8.882 3.947 18.755 4.935 28.62 2.96 2.96-0.493 5.922-1.48 8.882-2.96 2.96-0.987 5.922-2.468 8.882-4.442 2.469-1.974 4.939-3.945 7.402-5.923 8.882-9.375 14.313-22.207 14.313-35.033 0-12.833-5.431-25.666-14.313-35.040z" />
<glyph unicode="&#xe96c;" glyph-name="mma" horiz-adv-x="860" d="M648.604 635.275c-19.465 10.583-43.425 9.525-64.388 14.817-36.687 9.525-71.88 17.993-109.315 20.108-37.438 2.117-75.621-1.058-110.811-21.167 5.241-28.575 0-61.385-11.231-86.785-4.493-8.467-10.482-20.109-17.221-27.515-1.497-12.703-4.492-26.46-8.984-39.159 7.487 6.352 15.723 11.641 23.959 16.935 28.451 17.989 56.154 40.215 86.103 53.974 23.212 10.583 46.42 19.050 69.632 31.75 14.972 7.408 29.199 13.759 44.171 19.050 12.729 4.234 43.429 8.467 56.156 10.583 2.995-1.058 44.922 5.291 41.927 7.408zM115.512 632.101c-8.236 14.816-20.963 22.225-33.692 25.401-5.241 1.058-10.482 3.175-15.723 3.175-2.247 0-5.241 0-7.487-1.057-21.713-31.75-38.185-67.734-40.432-114.301-2.247-40.218 9.734-76.199 18.718-113.242 3.744-17.993 5.99-37.044 6.739-55.032 0-4.236-2.247-39.159 4.492-30.692 22.461 25.399 21.713 65.616 21.713 102.66 0 39.155 2.994 73.026 24.708 101.599 6.739 8.468 14.226 15.875 21.713 23.284 6.739 20.108 8.985 41.275-0.749 58.208zM311.674 522.035c-5.241-21.167-14.226-39.159-26.954-52.921-16.472-17.989-41.179-26.456-62.143-23.283-12.729 2.116-22.461 8.468-33.692 15.877-8.236 5.289-17.969 9.521-26.953 5.289-5.99-3.173-11.231-6.352-16.472-9.525-1.497-4.232-4.492-15.873-5.241-16.931 9.734-8.468 20.216-16.935 32.195-22.228 14.226-5.289 29.2-9.525 44.924-9.525 17.969 4.236 35.939 12.703 51.662 25.403 24.708 20.108 45.672 48.685 55.406 86.782 0.749 2.116 0.749 4.236 1.497 6.352-4.492-2.116-9.733-4.232-14.226-5.289zM120.752 640.567c27.703 24.342 58.401 42.334 89.846 53.976 12.729 4.234 26.205 9.525 39.682 13.759-2.247 16.933 0 35.984 8.985 47.625l0.749 1.057c5.99 9.525 14.975 20.108 23.211 25.401-5.241 1.058-11.231 1.057-15.724 1.057-13.477 0-24.708-3.175-38.185-6.35-5.989-1.058-11.979-5.291-16.471-10.583-5.99-22.225-13.477-43.391-28.451-53.975-13.477-9.525-29.2-10.583-43.426-5.291-11.98 4.234-22.462 14.816-34.442 21.167h-0.749c-12.729-6.35-23.21-17.993-33.692-29.634-5.99-6.35-10.482-11.642-15.724-19.050l-0.749-1.058c-1.497-1.058-2.994-2.117-4.492-4.234-1.497-3.175-2.995-6.351-3.744-10.583 8.984 4.234 19.466 5.292 28.451 4.234 16.471-1.058 33.692-9.525 44.923-27.517zM293.707 518.857c-30.698-4.232-63.641-2.116-91.344-21.167-4.493-4.232-8.984-8.468-12.729-15.873-0.749-1.057-2.995-2.12-2.995 0 0 6.348 0 13.757 0.749 20.108 2.995 30.692 18.719 58.206 36.688 76.199 14.974 14.816 34.442 21.167 47.919 40.218 18.718 25.4-7.487 48.683-17.221 71.966-1.498 4.234-2.995 9.525-4.492 14.817-14.975-4.234-29.2-10.583-43.426-15.875-29.949-11.642-58.401-28.575-84.606-50.799 10.482-16.933 13.477-34.927 4.492-55.034-5.241-11.642-13.477-21.166-22.461-29.632 0.749-6.351 2.995-12.702 5.241-19.050 6.739-19.051 14.226-37.044 22.461-55.032 5.99-13.761 13.477-13.761 23.959-7.409 17.221 9.525 33.692-8.468 49.416-15.877 24.708-11.641 48.667-7.409 71.129 11.641 14.226 11.641 26.205 32.812 32.943 55.037-5.241-3.178-10.482-4.236-15.723-4.236zM178.409 238.396c-6.739 58.21 8.984 112.185 32.195 158.75-11.231 0-23.21 3.178-33.692 8.468-13.477 6.352-28.451 13.761-39.682 27.519-2.995-7.409-9.734-24.34-11.231-30.692-11.979-39.159-17.221-78.319-16.472-120.653 0.749-41.275 9.734-85.725 24.708-121.71 15.723-38.098 41.928-67.731 49.415-111.123 0-1.057 0-1.057 0.749-2.116 0-1.057 0-3.178-0.749-4.236-0.749-5.289 3.744-3.173 5.241 0 9.734 27.519 10.482 63.5 7.487 93.134-3.744 33.87-14.226 67.735-17.969 102.66zM92.305 936.903c-13.477-10.583-25.456-26.459-32.196-45.509 3.744-3.175 6.739-2.116 9.734 2.118 4.493 16.933 11.98 31.75 22.462 43.392zM135.725 941.137c-5.99-3.175-12.729-7.409-17.969-14.817s-9.734-27.517 2.247-26.459c15.723 2.117 26.954 20.109 40.432 29.634 6.739 4.234 13.477 7.408 20.216 10.583-5.241 6.35-13.477 10.582-21.713 12.699-6.739-4.234-14.974-7.408-23.21-11.642zM203.114 865.995c1.497 16.934 0.749 46.568-16.472 74.084-0.749 0-1.497-1.059-2.247-1.059-14.974-6.35-26.954-15.875-38.934-28.575-7.487-7.408-28.451-28.575-35.19-7.408-5.241 16.933 17.221 32.809 24.708 38.1 8.236 5.291 17.969 11.642 28.451 15.875-29.2 9.525-72.626-2.117-88.349-58.209 0 0-5.99-16.934-11.979-13.759s-11.231 3.175-12.729-5.291c-1.497-8.467-11.231-66.675 5.99-107.95 0 0-1.497-7.409-0.749-13.759 0-6.35 12.728-39.158 34.44-48.683 0 0 4.493-1.058 11.98 5.291s11.231 11.643 20.964 8.468c9.734-3.175 32.195-11.643 59.148 2.116s23.958 46.568 29.2 69.85c0 0 2.247 8.468 6.739 12.7s0.749 35.982 0.749 35.982c0 0-17.221 5.293-15.723 22.226zM189.637 744.286c-14.226-12.7-38.185-10.583-56.154 10.583s-19.467 79.375-19.467 96.308c0.749 17.993 27.703 16.933 27.703 16.933 19.467 1.058 35.19 16.934 42.677 24.342 8.236 6.35 11.231-44.452 16.472-70.91 6.739-26.459 3.744-65.617-11.231-77.258zM184.397 883.986c-7.487-6.35-21.713-22.224-41.179-23.283 0 0-26.205 1.058-26.205-15.875 0-17.993 2.247-65.619 19.466-85.727s38.185-22.225 51.662-10.583c13.477 11.642 17.221 40.218 11.979 65.619-4.492 26.458-8.236 77.258-15.723 69.85zM195.623 497.69c5.99 6.352 14.226 9.525 20.964 11.641 20.216 6.352 41.179 10.583 61.395 14.819 14.226 3.173 29.2 6.348 43.426 13.757 16.472 12.7 30.698 30.693 35.939 58.209 8.236 40.217-3.744 89.959-17.969 124.883-8.236 19.050-19.467 37.042-33.692 47.625-1.498 1.058-2.995 2.117-3.744 3.175-2.247 1.058-3.744 1.057-5.99 1.057-2.995 0-5.989-1.057-8.984-2.116-9.734-4.234-18.719-13.759-24.708-25.401-10.482-22.225-11.231-44.45 2.247-64.558 11.231-15.876 31.445-40.217 16.471-63.501-14.226-21.167-35.939-25.401-51.661-42.334-20.964-22.225-36.687-53.974-41.179-88.901 2.995 5.293 5.241 8.468 7.487 11.641zM495.862 441.601c23.208 5.289 42.678 22.224 61.393 41.275 8.986 8.464 17.972 15.873 27.705 21.167 5.991 3.173 11.977 5.289 17.221 9.525 8.236 9.525 11.977 20.108 5.24 32.808-5.24 10.582-14.226 14.816-22.461 20.107-4.493 3.175-7.488 7.409-8.986 13.759-15.724-8.467-27.701-22.225-41.18-37.041-18.719-20.108-39.682-38.102-62.143-47.627-12.729-5.289-26.203-8.468-39.682-8.468-7.487 0-15.723 1.057-23.21 2.116-1.497 0-2.994 0-3.744 0 17.221-43.391 56.903-55.032 89.848-47.623zM838.769 414.082c-3.743 29.634-10.484 60.326-20.217 86.782-2.245 5.293-4.493 11.641-7.484 17.993-5.991-2.116-12.729-3.173-19.47-4.232-11.977-2.12-21.71-7.409-29.949-20.108-6.738-10.583-9.733-22.224-10.479-35.986 3.743-5.289 8.236-10.583 11.231-16.935 19.465-43.391 31.447-93.13 29.199-144.989-0.746-19.051 0-40.218 6.742-57.152 3.743-9.525 12.729-16.935 19.465-22.224 3.743-3.173 12.729-10.583 16.47-8.468 6.738 2.116 0 14.819-1.498 19.051-2.995 10.583-3.743 21.167-2.995 31.75 1.498 19.051 5.991 37.044 8.986 55.032 0.746 5.293 1.498 11.645 2.245 16.935 2.249 26.46 0.751 55.032-2.245 82.551zM653.089 216.172c-0.746-3.173 2.249-6.352 4.493-8.468 10.484 17.993 11.231 44.45 3.747 64.558-2.995 8.468-6.742 15.877-10.484 23.287-0.746 0-1.498 0-2.245 0-2.249 1.057-4.493 1.057-5.991 2.116 2.995-6.352 5.991-13.761 7.488-21.167 3.743-13.761 5.987-27.519 5.24-42.334 0-5.293-0.751-11.641-2.249-17.993zM716.73 211.94c-8.236-2.116-6.738 5.289-8.982 13.757-5.991 21.167-17.221 35.982-31.447 46.566-5.24 4.236-10.484 7.409-14.977 11.645 2.995-7.409 5.991-14.819 6.742-23.287 2.995-20.108 0-41.275-9.733-57.148-0.751-1.057-1.498-2.116-2.995-1.057-2.249 3.173-4.493 5.289-6.742 7.409-0.746 0-0.746 1.057-0.746 2.116 4.493 16.931 4.493 33.866 1.498 50.801-4.493 14.815-12.729 27.515-18.719 42.334-13.475 7.409-25.456 17.993-36.687 31.75-8.986 10.583-17.968 21.167-28.451 27.519-5.991 3.173-11.977 7.405-17.221 12.699-20.213 5.289-40.43 5.289-62.89-3.173-32.944-11.645-65.139-46.57-78.617-91.022-8.984-29.63-11.231-65.616-27.703-89.957-5.99-8.468-29.949-23.283-9.734-30.692 11.98-4.232 23.21 5.289 32.195 14.815 18.718 22.224 29.949 53.979 49.415 75.146 20.963 22.224 45.673 30.692 71.876 29.63 31.447-1.057 59.899 2.12 83.111-34.924 35.189-56.091-8.986-124.884-35.193-161.924-16.47-23.287-31.443-48.685-36.687-80.435-2.991-14.819-13.475-53.979-3.743-65.62 12.729-14.815 17.968 31.754 21.714 40.218 14.226 31.75 37.434 52.921 59.895 71.967 42.678 38.102 91.346 95.254 110.812 164.044-1.498-1.057-3.743-2.116-5.991-3.173zM732.458 313.538c-8.236-5.289-17.221-8.468-23.212-10.583-5.24-2.116-11.231-4.232-17.217-6.348 3.743-3.178 7.484-7.409 11.231-12.699 1.498-2.12 2.991-4.236 4.489-6.352 0.751-1.057 1.498-1.057 2.249-2.116 10.479-13.761 14.972-29.634 17.968-46.57 2.995 11.641 4.493 24.34 5.24 37.044 0 7.405 0 27.515-0.746 47.623zM623.143 337.883c-3.747 4.232-7.488 9.525-10.484 15.873-5.991 11.645-11.981 23.287-20.963 30.692-5.244 4.236-11.231 7.409-16.474 9.525-5.24-5.289-10.479-10.583-15.724-15.873-1.494-2.12-2.991-6.352 0-7.409 16.474-3.173 29.203-20.108 41.931-34.924 8.986-10.583 17.968-19.051 27.701-26.46-3.743 8.468-5.987 17.993-5.987 28.576zM743.688 338.941c-1.498 4.232-2.245 8.468-2.995 13.757-6.738-3.173-14.972-4.232-22.461-4.232-11.231-1.057-21.71-3.173-31.447-9.525-7.484-4.232-14.972-9.525-22.461-12.699 0.751-1.057 0.751-1.057 1.498-2.12 3.747-6.348 8.236-10.583 13.479-14.815 2.995-2.116 5.987-5.289 8.982-7.409 18.719 6.352 37.438 17.993 53.908 29.634 0.751 1.057 2.995 4.236 1.498 7.409zM709.233 771.802c4.493-4.234 10.484-6.351 14.977-8.468-5.24 3.175-10.484 6.351-14.977 8.468zM793.095 661.734c-2.995 8.467-11.977 17.992-7.488 39.158 4.493 21.167 9.737 77.259-41.927 99.485 0 0-36.687 16.934-61.397-7.408-24.706-25.401-29.199-58.208-40.43-59.267 0 0-7.488-0.001-8.236-6.351-0.751-6.35-8.236-52.917 0-63.501s17.968-5.291 19.465-14.816c2.245-9.525 8.236-50.801 41.18-62.442 0 0 8.986-4.234 23.212 2.116s15.724 12.7 26.954 12.7c11.231 0 21.71-5.292 26.95 3.174 6.742 6.35 24.71 47.626 21.714 57.151zM653.835 703.009c-2.249 0-0.751 4.234 0.746 4.234 2.245 1.058 0.751-4.234-0.746-4.234zM657.578 682.901c-0.751-1.058-2.245-2.117-2.995 0-1.498 1.058 0.746 4.234 2.245 4.234 0.751 0 0.751 0 1.498 0 0.751-2.117 0-4.234-0.746-4.234zM659.075 728.41c0 3.175 0 6.35 1.498 8.467 0.746 1.058 1.498 2.116 2.245 1.057 0.751-1.058 0.751-2.116 0-3.174 0 0 0.751-1.059 0-2.118 0-1.058 0-2.116-0.746-3.174 0-2.117-2.995-4.234-2.995-1.058zM744.431 622.576c-12.729-29.633-41.931-27.518-41.931-27.518-25.456-1.058-38.185 39.159-40.43 60.326-2.249 21.167 17.221 78.317 20.963 85.725s7.488 1.058 7.488 1.058c17.968-20.108 64.388-29.633 68.881-30.692 5.24 0 3.743-8.467 3.743-8.467s-5.987-50.8-18.715-80.434zM763.146 638.451c-0.746-1.058-2.245-2.118-2.995-1.059-0.746 1.058 0 2.117 0.751 3.175 0.746 1.058 1.498 1.058 2.245 0 0.751 0 0-2.116 0-2.116zM749.671 745.343c-10.484 3.175-20.217 7.408-29.949 12.699-6.738 3.175-22.461 8.467-23.212 21.167 0 1.058 1.498 3.175 2.249 3.175 0.746 0 1.498 1.058 1.498 0 5.24-2.117 10.479-6.351 14.972-9.525 3.747-2.117 8.236-5.291 11.981-6.35 1.498-1.058 2.245-1.058 3.743-2.117 10.484-4.234 20.963-7.409 31.447-10.583 5.24-2.117 13.475-9.525 3.743-12.699-4.493-1.058-11.231 3.175-16.47 4.234zM772.132 662.791c-2.245 0-0.746 4.234 0.746 4.234 2.995 0 0.751-4.234-0.746-4.234zM775.127 688.192c-0.751-1.058-1.498-3.175-2.995-4.234-0.746-1.058-2.245 0.001-2.245 2.118 0.746 2.117 0.746 4.233 2.245 6.35 0.746 1.058 1.498 2.116 2.245 2.116 0.751 0 0.751-1.057 0.751-2.116 0.746-2.117 0.746-4.234 0-4.234zM756.408 708.302c-4.493 0-48.668 9.524-65.138 28.575 0 0-3.743 6.351-7.488-1.058-3.743-7.408-21.71-60.324-19.465-81.491 2.249-20.108 13.479-59.268 38.185-57.151 0 0 27.705-2.117 39.682 26.459 11.981 27.517 17.968 77.258 17.968 77.258s0.751 7.409-3.743 7.409zM692.029 487.108c-28.451 10.583-62.143 22.224-92.843 19.051h-0.746c-5.991-2.116-17.968-62.442-21.714-82.551-3.743-20.108 4.493-21.167 4.493-21.167 9.733 1.057 26.207-11.641 38.936-44.45s41.927-28.576 62.89-10.583c20.217 17.993 44.927 9.525 52.411 12.699 7.488 3.173 17.972 53.975 20.963 71.967 2.249 12.699-8.982 14.815-10.479 30.692-17.968 9.525-35.941 17.993-53.908 24.34zM742.933 586.592c-15.724 2.117-15.724-11.641-40.43-16.933-24.71-5.291-28.451 23.283-33.692 28.575-4.493 5.291-61.397 1.058-79.364-5.291-17.972-5.291-5.244-19.051-5.244-19.051s25.456-3.173 30.7-35.982c2.995-15.877 0-24.344-3.747-28.576 26.954 0 54.659-9.525 79.364-17.993 18.719-6.348 37.438-14.815 54.659-25.399 0 5.289 0.746 12.699 3.743 21.167 11.981 43.391 64.392 34.924 64.392 48.685 0 14.815-54.659 49.741-70.383 50.799zM699.517 284.966c-11.981 11.641-25.456 19.051-37.438 30.692-1.498 1.057-2.995 3.173-3.743 4.232-10.484-3.173-21.714 1.057-30.7 9.525 0.751-8.468 2.995-16.935 7.488-24.34 1.498-3.178 2.995-5.293 4.493-8.468 2.245-4.236 3.743-8.468 5.991-11.641 2.245-4.236 3.743-8.468 5.987-13.761 5.244-14.815 9.737-45.507 0.751-60.322 2.245-2.12 3.743-3.178 5.991-5.293 11.977 13.757 11.231 38.102 6.738 60.326-2.245 10.583-6.738 20.108-11.231 29.634 0.746 0 0.746-1.057 1.498-1.057 11.231-12.699 25.456-17.993 37.434-29.634 3.747-4.236 9.737-10.583 14.226-17.993 5.244-9.525 8.24-20.108 8.24-30.692 2.991 1.057 5.987 3.173 8.982 5.293 2.995 23.283-12.729 50.801-24.706 63.5z" />
<glyph unicode="&#xe96d;" glyph-name="tennis" horiz-adv-x="860" d="M268.712 229.643c-20.894 9.171-40.482 20.009-54.847 33.347-7.836 6.67-11.752 14.17-15.67 21.675 6.529-45.852 58.765-83.362 62.682-130.048 1.306-9.167 0.001-15.005-11.752-19.173-18.282-5.834-36.564-10.002-54.847-15.837-50.929-15.009-108.388-41.683-141.035-71.694-15.671-14.174-19.589-32.512-31.341-47.517-2.612-4.168-6.529-10.002-6.529-14.17 0-20.009 27.424 10.002 30.035 13.335 45.705 44.185 137.118 50.855 207.636 70.028 69.212 18.338 117.529 53.352 131.894 100.869 2.612 7.5 3.918 15.005 3.918 23.341-40.482 10.002-83.577 19.173-120.141 35.845zM545.563 647.296c-1.306-50.852-66.599-91.699-147.565-90.865-79.659 0.834-143.646 42.515-142.341 94.201 1.306 50.852 66.599 91.7 147.565 90.866 79.657-1.668 143.648-43.349 142.341-94.202zM219.090 432.217c9.141 25.012 20.893 50.019 41.787 72.529 11.752 12.503 27.424 24.172 47.013 34.179-50.929-9.171-95.33-32.512-133.2-55.854-58.765-34.179-107.083-75.861-121.447-126.712-3.918-12.503-5.224-25.843-7.836-39.182-1.306-5.834-10.447-42.514 9.141-30.011 5.223 3.332 7.836 10.002 10.447 15.005 5.223 10.002 9.141 20.84 15.67 30.011 31.341 40.013 78.353 75.861 137.118 100.034 0-0.831 1.306 0 1.306 0zM400.606 201.303c10.447 23.341 39.176 45.016 66.601 60.857 13.058 7.5 27.423 15.005 41.786 20.84-9.142 2.501-18.285 4.999-27.423 7.5-30.035 7.504-62.684 18.342-66.601 40.848-5.223 25.012 20.894 50.019 36.565 71.694 0 0.835 1.302 1.667 1.302 2.501-40.48 10.838-82.269 22.506-117.527 39.182-31.341 14.17-61.376 33.343-62.683 57.519-3.918-5.003-7.836-9.171-11.753-13.339-15.67-16.672-27.423-35.014-33.952-53.352-16.976-44.185-33.953-95.87-20.893-140.886 11.752-39.178 71.824-61.687 127.976-74.192 13.059-5.003 26.117-9.171 39.177-12.503 9.141-2.501 18.282-5.003 26.117-7.504 0-0.835 0 0 1.306 0.835zM619.994 213.807c-6.533 15.837-24.813 31.676-44.4 41.679-18.285 10.006-39.178 17.506-61.377 25.012-24.813-10.838-48.32-24.176-65.293-38.346-14.365-11.673-31.342-25.843-41.789-40.848 0-1.671-1.306-2.501-1.306-4.168 32.647-10.838 62.683-24.176 80.966-46.686 24.809-30.011 15.667-76.693 10.444-107.539-3.916-20.009-2.61-40.013 2.614-59.186 2.61-8.336 5.222-16.676 9.138-25.843 2.614-5.839 3.92-11.673 7.84-17.506 5.222-5.834 14.36-5.834 18.28 0 7.836 10.838-1.306 29.175-1.306 40.013 0 34.179 15.671 65.025 33.955 95.035 16.973 28.344 36.564 56.688 49.622 85.864 6.529 16.672 10.444 35.014 2.614 52.52zM771.482 678.141c-5.226 21.675 22.199 105.871 22.199 105.871l-1.306-0.833c16.973 30.011 14.365 67.524-10.449 103.371-40.48 59.188-129.284 88.366-195.884 65.858-67.903-23.342-88.8-90.033-48.316-149.221 22.199-31.679 56.151-54.186 94.022-65.856 30.035-15.006 90.106-48.351 109.697-79.196 26.115-41.681 73.129-145.052 73.129-145.052l30.035 4.168c1.302 0-69.213 139.216-73.129 160.892zM776.704 789.015l-22.199-6.669c-2.614 5.002-5.226 9.17-7.836 13.338l22.199 7.502c2.61-5.836 5.222-10.004 7.836-14.172zM776.704 804.854l11.751 3.334c-1.306-5.836-2.61-10.838-3.916-15.84-3.92 4.168-5.226 8.336-7.836 12.504zM702.269 807.355c-3.92 5.836-6.529 10.837-10.449 16.673l22.199 7.503c3.92-5.836 6.529-10.838 10.449-16.673l-22.199-7.502zM727.078 810.689c2.614-5.002 5.226-10.004 9.142-15.005l-22.199-6.67c-2.61 5.002-6.529 10.003-9.142 14.172l22.199 7.503zM683.984 821.526c3.92-5.836 6.529-10.838 10.449-16.673l-20.893-6.669c-3.92 5.836-6.529 10.837-10.449 16.673l20.893 6.669zM660.479 818.192c-2.61 5.002-6.529 10.004-9.138 15.006l20.893 6.669c2.61-5.002 6.529-10.003 9.142-15.005l-20.897-6.67zM690.514 827.362c-2.61 5.002-6.529 10.004-9.138 15.005l22.199 7.503c2.61-5.002 5.222-10.004 9.138-15.006l-22.199-7.502zM678.762 845.702c-2.614 5.002-5.222 9.17-7.836 14.172l23.507 7.502c2.61-5.002 5.222-9.17 7.836-14.172l-23.507-7.502zM668.314 864.041c-2.61 4.168-5.222 8.336-7.836 12.504l23.507 7.503c2.614-4.168 5.222-8.336 7.836-12.504l-23.507-7.503zM663.091 857.373c2.614-5.002 5.222-9.17 7.836-14.172l-20.893-6.669c-2.614 5.002-5.226 9.17-7.836 14.172l20.893 6.669zM639.585 854.038c-2.614 4.168-5.222 9.17-7.836 13.337l22.199 6.669c2.614-4.168 5.226-8.336 7.836-12.504l-22.199-7.502zM631.75 851.537l-20.893-6.669c-2.61 5.002-5.222 9.171-7.836 13.338l20.893 6.669c1.306-4.168 3.92-8.336 7.836-13.338zM629.14 870.711c-3.92 6.669-7.836 12.504-10.449 17.506l20.893 6.669c3.92-5.836 6.529-11.671 10.449-18.34l-20.893-5.835zM621.305 868.21l-20.897-6.669c-3.916 6.669-7.836 12.505-10.444 17.506l20.893 6.669c2.614-5.002 6.529-10.838 10.449-17.506zM587.35 883.215c-3.916 6.669-6.529 11.671-10.444 16.673l20.893 6.669c2.614-5.002 6.529-10.838 10.444-16.673l-20.893-6.669zM591.27 859.874l-18.285-5.835c-3.916 6.669-7.836 12.504-10.444 17.506l19.587 5.836c2.614-5.836 5.222-11.672 9.142-17.506zM593.878 855.705c2.614-4.168 5.226-9.17 7.836-13.338l-18.28-5.836c-2.614 5.002-6.529 9.17-9.142 13.338l19.587 5.835zM604.327 839.032c2.614-5.002 5.222-9.169 7.836-14.171l-18.285-5.836c-2.61 5.002-6.529 9.17-9.138 14.172l19.587 5.835zM612.163 841.534l20.893 6.669c2.614-4.168 5.222-9.17 7.836-14.172l-22.199-6.669c-1.306 5.002-3.916 9.17-6.529 14.172zM643.505 830.696c2.61-5.002 6.529-10.003 9.138-15.005l-22.195-6.669c-2.614 5.002-6.533 10.003-9.142 15.005l22.199 6.669zM655.255 812.357c2.614-5.836 6.529-10.838 10.449-15.84l-22.199-6.669c-3.92 5.836-6.529 10.837-9.142 15.839l20.893 6.67zM667.011 792.349c2.61-5.002 5.222-10.004 9.138-14.172l-22.199-6.669c-2.61 5.002-5.222 10.004-9.138 14.172l22.199 6.669zM674.842 794.85l20.897 6.669c2.61-5.002 6.529-10.003 9.138-14.172l-20.893-6.67c-2.61 4.168-6.529 9.17-9.142 14.172zM707.491 783.18c2.614-4.168 5.222-9.17 7.836-13.338l-20.893-6.669c-2.614 5.002-5.222 9.17-7.836 13.338l20.893 6.67zM715.327 785.68l22.199 6.669c2.614-5.002 5.222-9.17 7.836-13.338l-22.199-6.67c-2.614 4.168-5.222 9.17-7.836 13.338zM744.055 799.018c-2.614 5.002-5.222 10.004-9.142 15.005l23.507 7.503c2.614-5.002 5.226-10.003 7.836-15.005l-22.199-7.503zM732.304 817.358c-3.92 5.836-6.529 11.671-10.449 16.673l23.507 7.503c2.614-5.836 6.529-11.671 9.142-16.673l-22.199-7.503zM720.549 837.366c-2.61 5.002-5.222 10.003-9.142 15.005l23.507 7.502c2.614-5.002 5.226-10.004 7.836-15.006l-22.199-7.502zM710.105 855.705c-2.614 5.002-5.222 9.17-7.836 14.172l23.507 7.503c2.61-4.168 5.222-9.17 7.836-14.172l-23.507-7.503zM699.655 873.211c-2.61 4.168-5.222 8.336-7.836 12.504l23.507 7.502c2.614-4.168 3.92-7.502 6.529-11.671l-22.199-8.336zM690.514 889.885c-3.916 6.669-7.836 12.504-10.444 18.34l24.809 7.502c3.92-5.835 6.533-11.671 10.449-18.34l-24.813-7.502zM682.682 887.384l-23.507-7.503c-3.92 6.669-7.836 12.504-10.449 18.34l23.507 7.502c2.61-5.836 6.529-12.504 10.449-18.339zM644.811 901.556c-3.92 6.669-7.836 12.505-10.449 17.506l23.507 7.502c2.61-5.002 6.529-11.671 10.444-17.506l-23.503-7.503zM636.976 899.054l-20.897-6.669c-3.916 6.669-7.836 11.671-10.444 16.673l20.893 6.669c3.916-5.002 6.529-10.003 10.449-16.673zM603.021 913.226c-2.614 5.002-5.222 9.17-7.836 13.338l20.893 7.502c2.614-4.168 5.226-8.336 7.836-13.338l-20.893-7.503zM595.185 910.726l-20.893-6.669c-2.614 5.002-5.222 9.17-7.836 12.504l20.893 6.669c2.614-3.334 5.226-8.336 7.836-12.504zM578.212 880.715l-19.591-5.835c-3.916 6.669-7.836 11.671-10.449 15.839l19.591 6.669c3.916-5.002 7.836-10.837 10.449-16.673zM565.149 851.537l-16.977-5.002c-3.916 7.502-7.832 12.504-10.444 17.506l15.671 5.002c3.916-5.836 7.836-11.672 11.751-17.506zM566.457 847.369c2.614-4.168 5.222-9.17 9.142-14.172l-16.977-5.836c-2.61 5.002-5.222 10.004-7.836 14.172l15.671 5.835zM578.212 830.696c2.61-4.168 5.222-9.169 9.138-14.171l-18.28-5.836c-2.614 5.002-5.226 10.003-7.836 14.172l16.977 5.835zM588.656 813.191c2.614-5.002 6.529-10.003 9.142-15.005l-18.285-5.836c-2.61 5.002-6.529 10.003-9.142 15.005l18.285 5.836zM596.492 815.691l18.285 5.836c2.61-5.002 5.222-10.003 9.138-15.005l-16.973-5.836c-3.92 5.002-7.836 10.003-10.449 15.005zM625.22 802.353c2.614-5.002 6.529-10.838 9.142-15.84l-16.977-5.002c-3.916 5.836-6.529 10.837-10.444 15.839l18.28 5.002zM636.976 782.346c2.61-5.002 5.222-10.004 9.138-14.172l-16.973-5.002c-2.614 5.002-6.533 10.004-9.142 14.172l16.977 5.002zM647.42 764.84c2.614-5.002 5.222-9.171 7.836-13.338l-15.671-5.002c-2.614 5.002-5.222 9.17-7.836 13.338l15.671 5.002zM642.198 741.497c0 0.834 0 0.834 0 0.834l15.671 5.002c2.61-3.334 3.916-7.502 6.529-10.837-7.836 1.668-14.365 2.501-22.199 5.002zM663.091 753.168c-2.614 5.002-5.222 9.17-7.836 13.338l22.199 6.669c2.614-4.168 5.222-9.17 7.836-13.338l-22.199-6.669zM687.904 756.503c3.916-7.502 7.836-14.172 11.751-20.841-9.142-0.834-16.977-0.834-26.115-0.834-2.614 5.002-5.226 9.17-7.836 14.172l22.199 7.502zM695.74 759.004l20.893 6.669c5.222-8.336 9.142-15.839 13.058-22.508-1.306-0.834-2.614-0.833-3.916-1.667-6.529-1.668-11.755-3.334-18.285-5.002-2.614 8.336-6.529 15.839-11.751 22.508zM725.776 769.008l22.199 6.669c3.916-5.836 6.529-11.671 10.444-17.506-5.222-4.168-11.751-8.336-19.587-11.672-3.92 7.503-9.142 15.006-13.058 22.508zM755.811 778.177l22.199 6.669c0-0.834 1.302-0.833 1.302-1.667-3.916-7.502-9.138-13.338-15.671-19.174-2.61 4.168-5.222 9.17-7.832 14.172zM788.455 813.191l-14.365-4.168c-2.61 5.002-5.222 10.003-7.836 15.005l22.199 7.503c1.306-6.669 1.306-12.504 0-18.34zM788.455 834.864l-24.813-7.502c-3.916 5.836-6.529 11.671-9.138 16.673l28.729 9.17c2.61-5.836 3.916-12.504 5.222-18.34zM781.926 857.373l-30.035-10.003c-2.61 5.002-5.222 10.004-7.836 15.006l31.342 10.003c2.614-5.002 5.222-10.003 6.529-15.005zM768.868 882.382c1.306-1.668 2.61-4.168 3.916-5.836l-31.338-10.003c-2.614 5.002-5.226 10.003-7.836 14.171l30.031 9.17c1.306-2.5 3.92-5.002 5.226-7.503zM761.033 893.219l-28.729-9.17c-2.614 4.168-5.226 8.336-6.529 11.671l26.115 7.502c2.614-3.334 5.222-6.67 9.142-10.004zM746.669 906.558l-24.813-7.503c-3.916 7.502-7.836 13.338-10.449 18.34l15.671 5.002c6.533-4.168 13.062-10.004 19.591-15.839zM721.856 925.731l-13.058-4.168c-3.916 6.669-6.529 11.671-9.142 15.839 7.836-3.334 15.671-7.502 22.199-11.671zM700.963 919.062l-24.813-7.502c-3.916 6.669-7.836 12.504-10.444 17.506l24.809 8.336c2.614-4.168 6.529-10.838 10.449-18.34zM663.091 949.073c7.836-1.668 16.977-4.168 24.813-6.669 0 0 0-0.834 1.306-0.834l-24.813-8.336c-3.92 5.836-6.529 10.003-7.836 13.338l6.529 2.5zM656.563 930.733l-23.507-7.502c-2.614 5.002-6.529 10.003-7.836 13.338l23.507 8.336c1.306-5.002 5.222-9.17 7.836-14.172zM643.505 951.573c1.306-0.834 1.302-2.5 2.61-4.168l-23.507-8.336c-3.916 5.836-6.529 10.004-7.832 11.671 9.138 1.668 19.587 1.667 28.729 0.834zM587.35 945.739c5.222 1.668 11.755 3.334 18.285 4.168 1.306-1.668 3.916-6.67 7.836-13.338l-20.893-7.502c-5.226 8.336-7.836 12.504-9.142 14.171 1.306 0.834 2.61 1.668 3.916 2.501zM576.905 940.737c1.302-2.5 5.222-7.502 9.138-14.172l-20.893-6.669c-3.916 5.836-5.222 8.336-6.529 10.004 5.222 4.168 11.751 7.502 18.285 10.837zM552.092 924.898c1.306-1.668 2.614-4.168 3.916-7.502l-15.667-5.002c3.916 4.168 7.836 8.336 11.751 12.504zM558.621 914.060c2.614-3.334 5.222-8.336 7.836-12.504l-19.587-6.669c-3.92 6.669-6.529 10.004-7.836 12.504l19.587 6.669zM533.808 899.889c1.306-2.501 2.614-5.002 5.226-8.336l-9.142-3.334c1.306 4.168 2.614 8.336 3.916 11.672zM528.585 884.049l13.058 4.168c2.614-5.002 6.533-10.004 10.449-15.84l-15.671-5.002c-3.916 7.502-6.529 10.838-7.836 12.504 0 1.668 0 2.501 0 4.168zM527.279 866.543c0-0.834 0-0.834 1.306-1.668h-1.306c0 0.834 0 0.834 0 1.668zM527.279 860.707l2.614 0.834c2.614-5.002 6.529-10.837 10.449-17.506l-9.142-3.334c-2.614 6.669-3.92 13.338-3.92 20.007zM537.728 821.526c-2.614 5.002-3.92 10.003-6.529 15.005l10.444 3.334c2.614-5.002 5.226-9.17 7.836-14.172l-11.751-4.168zM546.87 805.687c-2.614 4.168-5.226 8.336-7.836 12.504l13.058 4.168c2.614-5.002 5.222-9.17 7.836-14.171l-11.755-4.168c0 0.834-1.302 0.833-1.302 1.667zM550.785 800.685l11.755 3.334c2.61-5.002 5.222-10.004 9.138-15.006l-7.836-2.501c-5.222 5.002-9.138 9.17-13.058 14.172zM566.457 783.18l6.529 2.5c2.614-5.836 6.529-10.838 9.142-15.84-5.222 4.168-10.449 9.17-15.671 13.338zM580.82 788.181l18.285 5.836c3.916-5.002 6.529-10.838 10.444-15.84l-19.587-5.836c-2.614 5.836-5.222 10.838-9.142 15.84zM597.798 759.838c-1.306 3.334-3.92 5.836-5.222 8.336l19.587 6.67c2.614-5.002 6.529-10.003 9.142-14.172l-15.671-5.002c-2.614 1.668-5.222 2.501-7.836 4.168zM623.914 756.503c2.614-4.168 5.226-8.336 7.836-12.504-6.529 2.501-14.365 5.002-20.893 8.336l13.058 4.168zM751.891 677.308c-7.836-1.668-69.213 40.848-87.493 53.353 23.507-2.501 48.316-0.834 70.515 6.67 13.062 4.168 23.507 10.003 32.649 17.506-1.306-20.841-6.529-75.86-15.671-77.528zM761.029 533.921c7.836 11.673 18.28 22.508 30.035 33.346 9.142 8.336 24.813 19.174 15.671 29.177-16.977 21.675-69.213-20.841-78.355-28.344-24.809-19.174-44.4-41.679-63.987-63.355-20.893-23.341-50.928-47.517-96.636-34.179-23.507 7.5-43.094 19.173-63.987 29.175-27.427 13.339-52.236 29.175-84.884 36.68-26.117 5.834-60.070 7.5-87.495 2.501-14.365-2.501-30.035-8.336-39.176-16.676-39.176-32.508 10.447-59.186 52.236-75.027 79.659-30.011 174.986-60.852 269.012-39.178 36.564 8.336 67.907 24.172 91.408 43.345 24.813 20.009 36.568 46.686 49.626 70.858 1.306 5.003 3.916 8.34 6.529 11.673zM651.34 323.011c-1.306 5.003 0 10.838 5.226 14.17-2.614 0.835-5.226 0.835-9.142 0.835-10.449 0-20.897-2.501-27.427-6.67 5.226 0.835 11.755 0.835 15.671-1.667 9.142-5.834 5.226-15.005 1.306-21.675-2.61-5.834-6.529-11.673-1.306-17.506 0-0.835 1.306-1.667 2.614-2.501 2.614-0.831 5.222-0.831 9.142-0.831 13.058 0 24.809 4.168 32.645 10.002-7.836 9.171-26.115 17.506-28.729 25.843zM669.624 314.676c5.222-3.332 10.444-6.67 14.365-10.838 1.306 2.501 2.614 5.834 2.614 9.171 0 10.838-9.142 20.004-23.507 23.341-10.449-5.003 0-17.506 6.529-21.675zM625.22 298.004c1.306 7.5 15.671 20.84 5.222 27.509-5.222 2.501-11.751 1.667-18.285 0-2.61-3.336-3.916-7.504-5.222-11.673 0-9.171 7.836-17.506 18.285-21.675 0 0.835 0 3.336 0 5.839z" />
<glyph unicode="&#xe96e;" glyph-name="BNB" d="M1024 448c0-282.769-229.231-512-512-512s-512 229.231-512 512c0 282.77 229.23 512 512 512s512-229.23 512-512zM64.915 448c0-246.916 200.166-447.087 447.085-447.087 246.916 0 447.087 200.171 447.087 447.087 0 246.918-200.171 447.085-447.087 447.085-246.918 0-447.085-200.166-447.085-447.085zM146.287 448.004c0-201.975 163.739-365.717 365.713-365.717s365.713 163.742 365.713 365.717c0 201.98-163.742 365.709-365.713 365.709-201.975 0-365.713-163.729-365.713-365.709zM354.671 546.855l78.596 78.572c43.226 43.215 78.652 78.572 78.72 78.572 0.252 0 157.193-157.022 157.193-157.273 0-0.141-12.962-13.213-28.8-29.048l-28.804-28.791-28.937 28.919c-15.915 15.906-30.976 30.974-33.472 33.484s-11.887 11.831-20.873 20.714l-16.337 16.151-99.3-99.268-57.986 57.968zM453.235 448.064l29.312 29.303c16.124 16.119 29.372 29.308 29.444 29.308 0.068 0 13.316-13.188 29.44-29.308l29.312-29.303-58.752-58.739-58.756 58.739zM256 448.009c-0.070 0.043 12.885 13.086 28.79 28.988 15.905 15.898 28.976 28.911 29.047 28.911s13.118-12.988 28.994-28.86l28.865-28.855-57.859-57.839-28.855 28.791c-15.87 15.834-28.912 28.826-28.982 28.864zM652.284 447.936l28.864 28.855c15.876 15.872 28.924 28.86 28.992 28.86 0.073 0 13.12-12.988 28.996-28.86l28.864-28.855-57.86-57.839-57.856 57.839zM354.799 349.444c0 0.162 12.978 13.197 28.841 28.966l28.841 28.672 49.673-49.515c27.319-27.23 49.758-49.481 49.865-49.442 0.239 0.085 32.661 32.329 70.694 70.298l28.864 28.817 28.804-28.791c15.838-15.834 28.8-28.907 28.8-29.047s-35.366-35.614-78.596-78.831l-78.592-78.571-78.596 78.571c-43.228 43.217-78.596 78.707-78.596 78.874z" />
<glyph unicode="&#xe96f;" glyph-name="BTC" d="M1024 448c0-282.769-229.231-512-512-512s-512 229.231-512 512c0 282.77 229.23 512 512 512s512-229.23 512-512zM64.915 448c0-246.916 200.166-447.087 447.085-447.087 246.916 0 447.087 200.171 447.087 447.087 0 246.918-200.171 447.085-447.087 447.085-246.918 0-447.085-200.166-447.085-447.085zM512 82.287c201.98 0 365.713 163.733 365.713 365.713 0 201.978-163.733 365.713-365.713 365.713-201.978 0-365.713-163.736-365.713-365.713 0-201.98 163.736-365.713 365.713-365.713zM396.375 725.942h58.515v-68.052h58.513v68.052h58.513v-68.052h5.094c39.049 0 69.299-10.728 90.756-32.183 21.884-21.026 32.823-46.772 32.823-77.239 0-26.177-7.078-48.061-21.239-65.652-14.161-17.596-31.753-28.535-52.779-32.828 23.172-3.43 42.697-15.232 58.573-35.401s23.812-43.554 23.812-70.157c0-33.472-10.94-61.15-32.823-83.034s-52.565-32.828-92.045-32.828h-12.173v-58.513h-58.513v58.513h-58.513v-58.513h-58.515v58.513h-45.289v429.321h45.289v68.052zM557.056 486.033c15.45 0 27.678 4.292 36.689 12.873 9.011 8.585 13.517 19.742 13.517 33.472s-4.719 24.887-14.161 33.469c-9.011 9.011-21.026 13.517-36.045 13.517h-114.569v-93.331h114.569zM560.273 307.742c17.165 0 30.682 4.288 40.55 12.873 9.873 9.011 14.805 21.239 14.805 36.689 0 14.161-4.932 25.958-14.805 35.401-9.869 9.869-23.386 14.805-40.55 14.805h-117.786v-99.767h117.786z" />
<glyph unicode="&#xe970;" glyph-name="EOS" d="M1024 448c0-282.769-229.231-512-512-512s-512 229.231-512 512c0 282.77 229.23 512 512 512s512-229.23 512-512zM64.915 448c0-246.916 200.166-447.087 447.085-447.087 246.916 0 447.087 200.171 447.087 447.087 0 246.918-200.171 447.085-447.087 447.085-246.918 0-447.085-200.166-447.085-447.085zM512 82.287c201.98 0 365.713 163.733 365.713 365.713 0 201.978-163.733 365.713-365.713 365.713-201.978 0-365.713-163.736-365.713-365.713 0-201.98 163.736-365.713 365.713-365.713zM391.265 565.575c1.007 2.864 28.151 44.781 60.319 93.151 32.162 48.366 59.375 87.941 60.459 87.941 1.092 0 28.766-40.126 61.5-89.173l59.52-89.173 15.787-82.868c8.687-45.577 19.985-104.713 25.109-131.413 5.129-26.701 9.037-48.768 8.687-49.041s-38.848-25.809-85.551-56.747l-84.919-56.252-85.141 56.158c-46.831 30.891-85.39 56.384-85.69 56.653-0.822 0.742 47.808 254.751 49.922 260.765zM565.611 603.619c-16.145 24.179-34.334 51.67-40.418 61.081s-11.934 17.114-12.996 17.114c-1.062 0-20.233-27.563-42.598-61.254l-40.666-61.254 40.683-134.969c22.374-74.231 41.425-134.989 42.334-135.010 0.909-0.026 19.955 60.787 42.334 135.138l40.683 135.183-29.355 43.971zM479.343 258.483c3.179-1.327-6.933 36.164-30.012 111.309-19.136 62.319-35.628 114.206-36.642 115.298-1.017 1.092-8.873-34.662-17.455-79.462-8.586-44.791-15.187-81.847-14.665-82.334 3.286-3.076 94.882-63.181 98.773-64.811zM643.358 323.268c0.538 0.538-5.824 36.442-14.14 79.782-13.764 71.77-16.055 84.275-17.545 84.181-0.41-0.026-0.755-0.998-1.263-1.954-3.695-6.993-69.385-225.51-68.186-226.82 0.956-1.041 96.614 60.258 101.133 64.811z" />
<glyph unicode="&#xe972;" glyph-name="ETH" d="M1024 448c0-282.769-229.231-512-512-512s-512 229.231-512 512c0 282.77 229.23 512 512 512s512-229.23 512-512zM64.915 448c0-246.916 200.166-447.087 447.085-447.087 246.916 0 447.087 200.171 447.087 447.087 0 246.918-200.171 447.085-447.087 447.085-246.918 0-447.085-200.166-447.085-447.085zM877.713 448c0 201.978-163.733 365.713-365.713 365.713-201.978 0-365.713-163.736-365.713-365.713 0-201.98 163.736-365.713 365.713-365.713 201.98 0 365.713 163.733 365.713 365.713zM335.394 459.738l181.099 302.593 185.681-302.593-183.39-110.033-183.39 110.033zM335.394 420.77l183.39-107.742 181.094 107.742-181.094-256.747-183.39 256.747z" />
<glyph unicode="&#xe973;" glyph-name="Light" d="M1024 448c0-282.769-229.231-512-512-512s-512 229.231-512 512c0 282.77 229.23 512 512 512s512-229.23 512-512zM64.915 448c0-246.916 200.166-447.087 447.085-447.087 246.916 0 447.087 200.171 447.087 447.087 0 246.918-200.171 447.085-447.087 447.085-246.918 0-447.085-200.166-447.085-447.085zM512 82.287c201.98 0 365.713 163.733 365.713 365.713 0 201.978-163.733 365.713-365.713 365.713-201.978 0-365.713-163.736-365.713-365.713 0-201.98 163.736-365.713 365.713-365.713zM336.46 252.954l38.255 145.050-52.885-18.27 9.753 63.39 60.645 21.278 61.26 232.284h136.533l-46.652-179.254 66.155 23.215-19.503-68.267-64.149-22.161-28.497-109.495h234.057l-24.38-87.77h-370.591z" />
<glyph unicode="&#xe974;" glyph-name="hockey" horiz-adv-x="860" d="M127.099-31.49c-2.068-6.807-16.545-11.667-34.468-9.723-17.233 1.947-31.021 8.75-33.088 15.557v-19.444c0 0 0 0 0-0.973-0.69-7.776 14.477-15.553 33.088-17.497 18.613-1.947 34.468 2.912 34.468 10.694v21.386zM94.007-8.161c-18.613 1.947-34.468-2.916-34.468-10.694 0-0.969 0-0.969 0-1.943 2.068-7.776 15.855-14.583 33.089-15.553 17.923-1.947 33.088 2.916 34.468 9.719v0.973c0 6.803-14.477 15.553-33.089 17.497zM610.336 387.508c-17.925 9.719-35.159 25.277-50.321 42.773-11.721-14.579-21.374-34.023-28.264-50.549-10.344-25.277-21.37-53.471-27.574-82.634 34.464 32.080 70.313 61.247 106.159 90.41zM572.414 303.9c-23.438-20.413-46.185-42.773-71.004-59.3 6.208-58.331 52.393-95.27 59.288-155.544 2.068-20.417-5.517-45.694-18.616-57.356-3.445-2.916-17.92-7.776-17.234-15.557 0.691-14.579 28.264-0.969 32.401 1.947 25.505 17.497 51.016 42.773 47.566 86.52-3.445 34.996-22.747 62.216-26.196 97.217-4.822 47.633 15.857 82.629 39.986 111.796 11.717 14.579 24.129 30.136 29.642 50.549-26.196-18.47-51.702-38.887-75.831-60.274zM508.305 683.042c-8.963-10.694-17.925-22.36-25.505-34.998-11.030-17.5-19.992-38.886-25.505-60.273-4.826-17.499-8.272-34.997-11.030-53.47 7.585-13.61 20.679-24.304 31.023-31.107 4.135-2.916 9.649-5.834 14.475-8.75 0.687 0 0.687 0 1.377 0 1.382 22.36 6.894 44.721 13.789 65.134 2.755 8.749 6.894 17.499 10.34 25.276 0 23.331 2.068 45.691 6.894 68.051 0.687 3.889 2.068 7.778 2.755 12.639-7.581 3.889-13.785 8.749-18.611 17.499zM528.297 312.651c-3.445 47.637-24.816 86.524-33.086 132.214-2.068 12.637-3.45 26.247-2.759 38.887-16.544 6.803-31.71 19.444-42.74 35.97-1.377 1.943-2.759 3.887-4.135 6.803-4.826-44.717-1.377-91.379 15.166-133.184 8.272-20.417 23.438-34.027 33.086-53.471 9.653-19.44 19.992-42.773 22.751-67.077v-0.973c4.135 3.891 8.272 6.807 12.407 10.694 1.377 10.694 0 20.417-0.691 30.136zM773.715 629.573c0-0.972 0-0.972 0 0 3.445 4.861 7.581 9.721 11.030 14.582-4.135-4.861-7.585-9.721-11.030-14.582zM767.507 743.316c-19.302 12.638-41.362 16.526-62.732 17.499-6.204 0-12.407 0.972-18.611 0.972-0.691-6.805-0.691-13.61-2.759-19.443-4.135-10.694-10.34-13.61-17.925-16.526-8.272-2.916-15.853-4.861-21.37-14.582-2.759-5.833-5.513-10.694-9.649-15.554-7.585-9.721-16.548-16.526-26.196-21.387-19.992-10.694-42.74-15.554-64.11-11.666-3.45 0.972-7.585 0.973-11.030 2.917-3.445-12.638-5.513-26.249-7.581-39.859-2.068-15.554-3.45-31.109-3.45-46.663 0-0.972 0-1.944 0-3.889s0.691-4.861 0.691-6.805c0-13.61 0.691-26.251 2.759-39.861 6.89-42.773 29.642-84.576 54.456-109.849 11.721-11.667 23.438-20.417 35.159-26.251 15.853 12.641 31.71 24.304 48.253 36.943 29.642 23.329 59.974 45.69 90.307 68.050 2.068 24.304 3.45 49.58 2.759 73.883-0.691 19.443-1.382 40.83-4.135 61.245-3.45 14.582-7.585 28.192-14.48 41.802-1.377 1.944-2.068 3.889-3.445 6.805 8.272-3.889 16.544-7.777 22.747-15.554 6.894-8.749 11.721-19.444 15.166-31.11 0.691 0.972 1.382 1.944 1.382 1.944l0.687 0.972c4.135 5.833 8.276 10.694 12.411 14.582 0.687 0.972 1.377 1.944 2.068 1.944 8.272 9.721 16.544 18.471 25.505 26.248-8.272 27.22-26.887 49.58-46.876 63.19zM797.149 194.047c-6.89 11.667-13.094 23.333-19.302 35.97-11.717 22.36-17.234 42.777-22.747 69.024-3.445 17.501-6.204 34.996-7.581 52.497-2.072 29.163-0.691 58.331 1.377 86.52-29.642-21.386-59.283-41.799-88.929-64.159-0.687-0.973-1.377-0.973-2.068-1.947 0-11.663 0.691-27.22 0.691-29.163 1.377-14.583 4.135-29.163 7.581-42.773 6.208-26.251 14.48-51.524 26.196-73.884 31.023-57.356 79.967-86.524 114.435-139.991 6.894-10.694 11.717-24.304 14.475-37.914 2.068-7.776 2.068-16.526 4.135-24.304 1.382-5.834 7.585 0 8.272 3.887 5.517 27.22 7.585 62.216 1.382 90.41-6.894 31.111-23.438 51.524-37.918 75.827zM817.146 673.321c-6.894-5.833-13.789-13.61-19.302-19.443-7.585-8.749-15.857-17.499-22.061-29.164 2.068-9.721 3.445-20.415 3.445-31.11 0-0.972 0-0.972 0-1.944s0-1.944 0-2.916c0-19.443-3.445-38.885-7.581-57.358-2.759-10.694-5.517-22.356-7.585-33.050 0-0.973 0-0.973-0.687-1.947 0-0.969 0-0.969-0.691-1.943-1.377-5.834-2.759-11.667-4.135-17.501-1.377-6.803-3.45-14.579-4.826-21.386 0-0.973 0-0.973 0-1.943 2.759 1.943 5.517 3.887 8.272 6.803 8.963 12.641 17.234 26.251 25.505 40.83 0.691 1.947 2.068 3.891 2.759 5.834 1.377 1.947 2.759 3.891 4.135 5.834 2.068 2.916 3.45 6.807 5.517 9.723 1.377 2.916 2.755 5.829 4.822 8.746 2.068 3.891 4.135 8.75 6.204 12.641l0.691 0.969c0.691 0.973 1.377 2.916 1.377 3.891 13.098 37.915 14.48 85.55 4.14 124.435zM846.093 532.358l-4.135 14.583-623.869-481.215c0 0-31.021-24.308-55.838-21.391s-129.599 42.777-129.599 42.777c0 0-8.273 5.834-12.409-2.916s-10.34-32.084-2.757-38.887c7.583-6.807 128.22-45.69 159.931-28.193 31.021 16.526 30.331 16.526 668.676 515.242zM568.283 956.217c0 0-39.981-15.554-62.728-67.078-22.751-51.525-12.407-73.884-7.585-89.438 4.826-15.554-10.34-94.299 24.82-117.63 35.155-23.331 77.208-4.861 95.129 11.666 18.616 16.526 15.166 33.054 36.536 39.859 22.061 6.805 23.438 23.331 24.82 48.607 2.755 24.304 30.328 206.096-110.99 174.015zM605.51 711.234c-8.272-30.136-57.215-32.081-78.585-12.638s-17.234 47.635-12.411 65.135c4.826 17.499-3.445 40.83-3.445 40.83 48.943-26.248 98.578 1.944 98.578 1.944s3.45-65.135-4.135-95.271zM517.271 796.784c0 0 7.581-20.415 2.759-35.97-4.135-15.554-7.585-39.859 11.026-57.357 18.616-17.499 62.047-15.554 68.937 10.695 6.894 26.248 3.45 84.576 3.45 84.576s-43.431-24.304-86.17-1.944z" />
<glyph unicode="&#xe975;" glyph-name="basketball" horiz-adv-x="860" d="M478.34 19.266c-1.14 9.079-3.429 17.023-6.86 24.965-9.15 21.562-20.586 40.851-35.453 59.009-24.020 27.233-56.044 43.119-82.349 66.949-20.586 19.294-33.168 41.988-41.174 66.953-12.581 4.54-25.162 9.079-37.743 9.079-19.443 0-40.029-1.136-56.042-11.347 6.863-29.505 22.874-57.874 41.174-82.839 36.599-39.72 89.209-59.009 134.958-86.247 35.455-21.558 61.763-49.926 77.773-83.972 4.576-2.268 8.005-2.268 8.005 6.807 0 10.215 0 20.426-2.288 30.641zM697.936 514.030c-5.721 9.079-17.159 14.751-32.024 12.483-11.438-2.272-20.586-6.807-28.593-13.619-6.866-14.751-11.438-30.637-11.438-47.659 0-13.619 2.288-27.237 8.005-39.72 8.005 36.316 28.593 69.225 64.050 88.515zM637.315 415.305c8.009-17.023 21.731-30.641 36.602-40.851-3.433 13.619-3.433 29.505-1.145 43.119 1.145 10.215 3.433 20.43 6.86 30.641 4.576 12.483 13.726 22.698 18.298 35.177 4.576 9.079 4.576 18.158 1.145 26.102-34.308-21.562-56.040-54.47-61.76-94.186zM813.448 537.86c-17.155 18.158-40.029 30.64-66.334 34.044-8.005-11.348-10.293-28.369-2.288-38.584 22.876 5.676 45.75 6.811 68.622 4.54zM749.399 528.781c8.009-6.807 18.302-9.075 29.736-10.211 17.159-2.272 36.602-4.54 49.183-18.158 5.717-6.807 10.293-13.619 12.577-21.562-2.284 19.294-10.293 37.448-21.731 52.202-22.872 3.404-45.746 3.404-69.766-2.272zM685.354 531.053c10.293-2.272 16.014-6.811 19.447-12.483 5.717 3.404 11.434 5.672 18.298 7.944-13.726 12.483-29.736 22.695-48.039 30.639-13.722-7.944-25.16-19.292-33.165-32.911 12.577 6.811 26.303 10.215 43.458 6.811zM772.274 456.156c-12.581 24.965-26.303 47.663-45.75 65.817-6.86-2.268-13.722-5.672-19.443-9.079 4.576-13.614-3.429-31.772-11.434-45.391-14.871-23.83-22.876-65.817-14.871-97.59 16.010-9.079 33.169-13.619 52.612-13.619 22.876 0 44.603 6.811 61.76 19.294 0 1.131 0 2.268 0 2.268-2.288 27.237-11.438 54.47-22.876 78.3zM760.836 515.167c-8.005 2.268-14.867 5.672-18.298 11.347-2.288-1.136-4.576-1.136-6.86-2.272 26.303-26.098 44.603-59.005 56.040-95.318 5.717-15.89 9.15-32.909 10.293-48.799 19.443 14.755 33.169 37.448 38.886 61.281 1.145 13.614-1.145 28.369-8.005 40.851-16.010 28.369-44.607 27.233-72.055 32.909zM739.105 531.053c-6.86 12.483-5.717 29.504 3.433 40.851-2.288 0-5.721 0-8.005 0-18.302 0-35.457-4.539-51.467-12.483 18.298-7.944 34.308-18.154 48.034-31.773 2.288 1.136 5.717 2.268 8.005 3.404zM363.972 843.118c0-64.682-52.611-116.882-117.802-116.882s-117.802 52.199-117.802 116.882c0 64.683 52.611 116.882 117.802 116.882s117.802-52.199 117.802-116.882zM239.306 540.132c-18.299-5.676-34.311-15.886-51.467-21.562-18.299-5.676-75.485-23.83-72.055 13.619 1.144 13.614 24.018 41.986 58.33 56.737 0 1.135 1.144 1.136 1.144 2.27 14.869 29.504 17.156 63.547 2.287 94.186-49.18-22.695-93.784-55.604-126.952-98.726-28.593-37.448-57.186-122.557 6.861-142.983 58.33-19.29 123.521 15.886 168.126 49.93 12.581 9.079 26.305 18.158 36.599 30.641 18.299 20.426-5.719 21.558-22.874 15.886zM455.468 310.903c-2.288 10.215-4.572 21.562-5.717 32.909-6.866 45.391-10.293 91.918-12.581 137.31-2.288 24.965-1.145 54.47-3.433 83.974-4.572-1.135-8.005-1.136-13.724-1.136-26.305 0-46.892 22.696-58.329 44.257-14.869 27.235-34.311 79.435-22.875 115.749-9.15 0-17.156-1.136-25.161-2.27-2.287-17.022-2.288-36.313-2.288-49.93-1.144-21.561-1.144-53.335-19.443-69.222-19.443-17.022-53.754-9.078-68.623 11.348-16.012 23.831-18.299 54.469-16.012 81.705-5.719-2.269-11.437-4.54-18.299-6.809 8.006-24.965 11.437-51.065 2.287-77.166-4.575-14.752-12.581-30.639-27.449-36.313-1.144-14.752-2.287-30.641-2.287-45.391 0-2.272 0-5.676 0-7.944 13.724 0 37.742 12.483 48.037 17.023 12.581 5.676 27.449 11.347 41.174 12.482 18.299 1.135 32.023-7.943 20.586-27.236-14.869-26.098-43.461-43.119-67.478-59.005-11.437-7.944-24.018-15.886-36.6-22.698 8.006-66.953 25.162-133.902 46.892-196.316 30.881 14.751 72.055 11.347 105.222 2.268-2.287 20.426-4.575 41.988-2.287 61.277 1.144 9.079 4.574 22.698 11.437 6.811 8.006-19.294 14.869-37.448 25.162-54.47 28.593 27.233 64.048 40.851 101.79 48.795zM590.424 47.635c-16.010 29.505-36.598 57.874-56.040 83.976-37.745 53.335-62.905 107.805-77.776 170.214-17.155-2.268-35.454-5.672-51.466-13.614-17.156-9.079-30.881-21.562-43.461-35.181v-1.131c25.162-38.584 50.324-78.304 80.061-113.48 30.881-36.312 68.622-65.817 100.646-100.997 29.736-21.558 49.179-61.277 60.617-94.186 2.288-6.807 8.005-9.075 12.581-5.672 0 1.131 0 1.131 0 2.268 4.572 38.584-6.866 74.897-25.164 107.805zM629.314 657.012c-51.467 38.583-113.229 59.008-177.273 62.413-33.17 2.27-67.481 4.539-101.792 3.405-4.574-26.1-4.574-52.199 1.144-78.3 1.144-3.405 2.287-6.808 3.432-9.078 8.006-22.695 20.586-47.661 43.461-60.144 11.437-5.675 24.018-7.944 34.314-5.675-2.288 30.639 166.98 51.066 249.328 1.136 10.293 3.405 20.586 6.808 30.881 10.213-22.876 30.639-53.755 53.335-83.492 76.030z" />
<glyph unicode="&#xe976;" glyph-name="football" horiz-adv-x="860" d="M112.906 126c-51.918 0-94.999-41.974-94.999-94.998 0-51.918 41.976-95.002 94.999-95.002 51.918 0 94.999 41.978 94.999 95.002s-43.081 94.998-94.999 94.998zM38.896-19.81c-8.837 12.149-14.361 26.512-16.569 40.87l16.569-2.21 6.628-33.14-6.628-5.52zM67.616 109.432l-4.418-12.153-13.255-1.105c5.523 5.524 11.047 9.943 17.674 13.257zM68.722 87.34c0 0 19.884 5.52 45.29 7.73 0 0 14.361-19.883 25.406-43.080 0 0-34.243-33.14-43.081-38.665 0 0-30.93 19.887-41.976 25.406-1.104 0 2.21 29.825 14.361 48.607zM153.778-46.322c-14.361-7.734-32.035-11.048-49.708-9.943-4.418 0-8.837 1.105-13.255 2.21l-9.941 15.463 24.302 27.616 49.708-19.883c0 0 0-7.73-1.105-15.463zM121.744 109.432c0 0-3.314 5.524-6.628 12.149 2.21 0 4.418 0 6.628 0 13.255-1.105 26.512-5.52 37.557-12.149-1.105-1.105-26.512-1.105-37.557 0zM196.859 2.282l-16.57-4.419-13.255 43.080c4.418 4.419 19.883 25.406 19.883 25.406l11.047-8.834c3.314-11.048 5.523-23.197 3.314-35.35 0-5.524-1.104-13.253-4.418-19.883zM433.258 350.239c-1.105 25.406 2.205 50.813-1.105 75.115-95.001-15.463-209.883-79.53-227.556-173.426-7.733-39.765-2.21-79.534 7.733-118.194 5.522-20.991 12.151-41.978 17.674-64.071 7.733-29.825 16.569-60.752 15.465-91.683-1.105-11.048-3.314-39.769 12.151-18.778 5.523 7.73 7.733 18.778 9.941 27.612 9.941 47.503 8.837 98.315 5.523 146.919-2.21 41.974-1.105 98.311 30.93 130.347 33.139 33.136 81.743 39.765 125.93 45.289 2.21 0 4.415 0 6.625 1.105-1.105 13.253-3.311 26.512-3.311 39.765zM426.625 844.014c0-64.069-51.918-115.987-115.987-115.987s-115.987 51.918-115.987 115.987c0 64.069 51.918 115.987 115.987 115.987s115.987-51.918 115.987-115.987zM630.986 580.004c11.048-41.976 13.257-115.986 64.071-127.035 1.105 1.105 1.105 3.315 2.21 5.524 1.105 3.315 0 9.943-3.315 16.568-6.629 17.677-12.153 30.931-12.153 49.712 0 38.661-3.315 78.427-18.778 113.775-32.035 77.325-130.347 133.661-212.091 123.72-7.73-1.105-15.463-2.21-24.301-4.419 3.314-1.104 6.629-2.209 9.942-4.418 23.197-7.733 44.184-24.302 60.752-41.976 9.943-8.837 18.782-18.779 27.616-29.825 49.708-15.465 93.896-50.813 106.045-101.626zM363.663 610.934c2.21 2.21 3.314 3.314 5.523 5.523 13.255 12.151 27.616 24.302 36.453 40.872 13.255 23.198 18.779 57.441-12.151 68.488-45.29 16.569-74.010-47.5-94.999-75.116-34.243-46.395-86.161-76.22-119.301-123.718-18.779-26.512-30.93-57.442-38.663-89.477-2.21-9.943-4.419-22.092-3.315-32.035 2.21-18.778 14.361-1.105 17.674 6.629 8.837 15.463 17.674 30.931 27.616 45.289 18.779 25.406 41.976 46.393 66.278 67.386 29.825 24.302 70.697 53.020 100.522 77.323 6.628 2.21 9.941 5.523 14.361 8.837zM838.658-12.081c-1.105 20.987-6.629 44.184-14.363 64.071-11.044 29.821-30.931 46.393-56.337 64.067-61.857 39.769-155.754 53.023-186.684 128.138-13.253 33.14-14.359 68.49-5.52 102.73 8.834 33.14 26.512 64.071 28.721 99.421 4.415 58.542-19.887 115.985-46.398 166.798-14.359 28.72-30.927 56.336-51.918 80.638-8.834 11.047-18.778 19.884-29.825 29.825-27.612 23.198-60.753 37.557-93.892 16.57-3.314-2.21-5.522-4.419-8.837-5.523h1.104c19.883 0 43.081-1.105 48.604-24.302 2.21-6.628 2.209-13.255 1.104-19.883 0-14.361-6.628-29.825-14.361-41.976-16.569-24.302-38.663-47.5-66.278-59.651 8.837-16.57 32.034-44.184 36.453-48.603 16.569-18.778 34.243-37.559 44.185-60.756 23.199-54.127 9.941-113.775 19.885-170.112 8.834-57.442 40.87-111.57 87.264-145.814 48.603-37.555 109.36-60.752 165.697-82.845 50.813-19.887 107.151-48.603 132.557-99.417 1.105-2.21 1.105-3.315 2.21-5.524 0-1.105 1.105-1.105 1.105-1.105 1.105-1.105 1.105-3.315 2.21-4.419 1.105-4.419 7.73 1.105 6.625 4.419-1.105 3.311-2.21 8.834-3.311 13.253z" />
<glyph unicode="&#xe977;" glyph-name="arrow-down" d="M512.216 349.363l-383.092 383.076c-10.524 10.548-24.593 16.35-39.595 16.35-15.010 0-29.072-5.802-39.611-16.35l-33.551-33.568c-10.556-10.531-16.367-24.609-16.367-39.611s5.811-29.063 16.367-39.602l456.104-456.113c10.574-10.581 24.701-16.376 39.72-16.334 15.086-0.042 29.196 5.744 39.778 16.334l455.663 455.688c10.556 10.54 16.368 24.601 16.368 39.611 0 15.002-5.811 29.063-16.368 39.611l-33.55 33.559c-21.837 21.837-57.386 21.837-79.215 0l-382.651-382.651z" />
<glyph unicode="&#xe978;" glyph-name="ruble" d="M576.067 619.519h-107.449v-129.474h107.449c35.697 0 64.737 29.041 64.737 64.736s-29.041 64.738-64.737 64.738zM873.953 809.958c-200.038 200.041-523.839 200.071-723.909 0-200.043-200.039-200.076-523.842 0-723.911 200.041-200.044 523.839-200.074 723.909 0 200.044 200.038 200.074 523.842 0 723.911zM576.067 405.955h-107.449v-44.047h86.094c23.219 0 42.045-18.821 42.045-42.040 0-23.224-18.826-42.045-42.045-42.045h-86.094v-43.382c0-23.224-18.824-42.045-42.045-42.045s-42.045 18.821-42.045 42.045v43.382h-43.379c-23.221 0-42.045 18.821-42.045 42.045 0 23.219 18.824 42.040 42.045 42.040h43.379v44.047h-43.379c-23.221 0-42.045 18.826-42.045 42.047s18.824 42.045 42.045 42.045h43.379v171.518c0 23.221 18.824 42.045 42.045 42.045h149.495c82.063 0 148.828-66.764 148.828-148.826 0-82.066-66.765-148.831-148.828-148.831z" />
<glyph unicode="&#xe979;" glyph-name="Tether" d="M1024 448c0-282.769-229.231-512-512-512s-512 229.231-512 512c0 282.77 229.23 512 512 512s512-229.23 512-512zM64.915 448c0-246.916 200.166-447.087 447.085-447.087 246.916 0 447.087 200.171 447.087 447.087 0 246.918-200.171 447.085-447.087 447.085-246.918 0-447.085-200.166-447.085-447.085zM556.962 490.116v-54.763c-31.189-1.557-62.438-1.489-93.623 0.205v43.721h-0.009v10.667c-86.045-4.139-149.742-19.017-149.742-36.74 0-20.937 88.832-37.897 198.416-37.897 109.577 0 198.413 16.96 198.413 37.897-0.004 17.984-65.54 33.024-153.455 36.911zM512 813.713c-201.974 0-365.713-163.729-365.713-365.709 0-201.975 163.739-365.717 365.713-365.717s365.713 163.742 365.713 365.717c0 201.98-163.742 365.709-365.713 365.709zM556.954 385.911v-161.318h-93.628v161.54c-100.224 5.798-175.2 29.111-175.2 57.003 0 27.887 74.976 51.196 175.2 57.003v45.204h-127.459v93.624h348.562v-93.624h-127.475l0.009-44.986c102.093-5.431 178.918-28.992 178.918-57.22 0-28.237-76.826-51.797-178.927-57.225z" />
<glyph unicode="&#xe97a;" glyph-name="TRON" d="M1024 448c0-282.769-229.231-512-512-512s-512 229.231-512 512c0 282.77 229.23 512 512 512s512-229.23 512-512zM64.915 448c0-246.916 200.166-447.087 447.085-447.087 246.916 0 447.087 200.171 447.087 447.087 0 246.918-200.171 447.085-447.087 447.085-246.918 0-447.085-200.166-447.085-447.085zM146.287 448.004c0 201.98 163.739 365.709 365.713 365.709 201.971 0 365.713-163.729 365.713-365.709 0-201.975-163.738-365.717-365.713-365.717s-365.713 163.742-365.713 365.717zM300.972 639.875c-7.605 0.826-15.072-2.483-19.567-8.673s-5.332-14.314-2.193-21.29l191.998-426.667c2.931-6.511 8.922-11.123 15.966-12.292 7.044-1.165 14.204 1.267 19.076 6.481l277.333 296.815c4.181 4.467 6.238 10.517 5.649 16.61s-3.763 11.635-8.717 15.228l-128 92.753c-3.004 2.177-6.524 3.533-10.214 3.934l-341.332 37.102zM531.819 478.967l-154.115 109.649 246.787-26.825-92.672-82.824zM601.587 484.1l61.146 54.645 50.957-36.922-112.102-17.724zM551.885 433.045l158.178 25.007-186.935-200.064 28.757 175.057zM510.127 442.039l-29.039-176.764-130.68 290.397 159.719-113.634z" />
<glyph unicode="&#xe97b;" glyph-name="sports" horiz-adv-x="1058" d="M634.976 253.934v264.939h176.627v-44.422c0-92.483 33.577-180.445 94.246-249.683-3.674-7.185-5.931-15.204-5.931-23.826v-35.325h-211.953v35.325c0 29.214-23.776 52.99-52.99 52.99zM423.024 591.359v7.242c0 92.395-33.118 179.525-93.188 248.551 72.539 66.871 167.651 108.22 269.815 112.547v-405.501h-163.062c-2.984 13.072-7.577 25.522-13.565 37.16zM634.976 960c104.032-4.292 198.475-46.223 270.082-112.547-60.248-69.061-93.455-156.315-93.455-248.833v-44.422h-176.627v405.802zM846.929 474.451v44.422h193.459c-4.114-99.865-42.745-194.149-110.355-268.085-53.503 62.368-83.104 141.019-83.104 223.664zM846.929 554.198v44.422c0 83.068 29.478 161.473 83.067 223.805 65.319-71.375 106.526-165.111 110.781-268.226h-193.848zM304.895 822.142c44.564-51.946 72.208-115.055 80.172-182.721-27.839 23.88-63.887 38.416-103.346 38.416h-63.868c19.27 54.366 49.191 103.133 87.042 144.305zM370.033-64h-282.602v105.98h282.602v-105.98zM364.859 132.429c-14.959-14.959-24.85-34.425-28.509-55.127h-213.595v17.665c0 4.698-1.855 9.187-5.175 12.488-64.999 65.018-100.801 151.423-100.801 243.356v168.062c0 68.161 55.461 123.639 123.639 123.639h141.302c68.179 0 123.641-55.479 123.641-123.639v-54.772c-40.255-8.214-70.651-43.875-70.651-86.53v-35.325h35.322v35.325c0 29.214 23.776 52.986 52.99 52.986s52.99-23.773 52.99-52.986v-105.976c0-17.804-7.227-35.22-19.801-47.813l-91.353-91.353zM435.917 153.538l45.27 45.27c19.164 19.164 30.148 45.691 30.148 72.787v105.976c0 42.639-30.396 78.316-70.651 86.53v54.772h158.967v-264.939h-35.325c-29.214 0-52.99-23.776-52.99-52.99v-74.713c-25.981 6.692-51.204 15.807-75.418 27.307zM652.637-46.335c0-9.748-7.928-17.665-17.661-17.665h-70.651c-9.733 0-17.661 7.916-17.661 17.665v247.278c0 9.752 7.928 17.661 17.661 17.661h70.651c9.733 0 17.661-7.91 17.661-17.661v-247.278zM687.966 24.316v105.976h211.953v-105.976h-211.953zM935.241 200.943c0 9.752 7.932 17.661 17.665 17.661h70.651c9.733 0 17.665-7.91 17.665-17.661v-247.278c0-9.748-7.932-17.665-17.665-17.665h-70.651c-9.733 0-17.665 7.916-17.665 17.665v247.278z" />
<glyph unicode="&#xe97c;" glyph-name="user" horiz-adv-x="1058" d="M529 960c-282.752 0-512.022-229.225-512.022-511.998 0-282.776 229.247-512.002 512.022-512.002 282.796 0 512.022 229.226 512.022 512.002 0 282.773-229.226 511.998-512.022 511.998zM529 806.906c93.56 0 169.377-75.838 169.377-169.354 0-93.539-75.817-169.355-169.377-169.355-93.516 0-169.332 75.817-169.332 169.355 0 93.516 75.817 169.354 169.332 169.354zM528.887 69.867c-93.314 0-178.778 33.981-244.699 90.232-16.059 13.695-25.324 33.779-25.324 54.854 0 94.843 76.76 170.749 171.625 170.749h197.063c94.888 0 171.356-75.905 171.356-170.749 0-21.099-9.223-41.136-25.304-54.834-65.897-56.271-151.384-90.253-244.72-90.253z" />
<glyph unicode="&#xe97d;" glyph-name="menu" horiz-adv-x="1058" d="M477.8 243.2v-153.6c-0.046-40.722-16.241-79.765-45.036-108.564-28.799-28.795-67.842-44.99-108.564-45.036h-153.6c-40.723 0.046-79.766 16.241-108.563 45.036-28.796 28.799-44.993 67.842-45.037 108.564v153.6c0.044 40.722 16.242 79.765 45.037 108.56 28.795 28.799 67.838 44.994 108.563 45.040h153.6c40.722-0.046 79.765-16.241 108.564-45.040 28.795-28.795 44.99-67.838 45.036-108.56zM324.2 960h-153.6c-40.723-0.044-79.766-16.242-108.563-45.037s-44.993-67.838-45.037-108.563v-153.6c0.044-40.722 16.242-79.765 45.037-108.564 28.795-28.795 67.838-44.99 108.563-45.036h153.6c40.722 0.046 79.765 16.241 108.564 45.036 28.795 28.799 44.99 67.842 45.036 108.564v153.6c-0.046 40.723-16.241 79.766-45.036 108.563-28.799 28.796-67.842 44.993-108.564 45.037zM887.399 396.8h-153.6c-40.722-0.046-79.765-16.241-108.564-45.040-28.795-28.795-44.99-67.838-45.036-108.56v-153.6c0.046-40.722 16.241-79.765 45.036-108.564 28.799-28.795 67.842-44.99 108.564-45.036h153.6c40.722 0.046 79.765 16.241 108.564 45.036 28.795 28.799 44.99 67.842 45.036 108.564v153.6c-0.046 40.722-16.241 79.765-45.036 108.56-28.799 28.799-67.842 44.994-108.564 45.040zM810.599 499.2c45.568 0 90.116 13.513 128.004 38.83s67.42 61.301 84.857 103.399c17.441 42.101 22.003 88.426 13.111 133.119-8.888 44.693-30.835 85.746-63.054 117.968-32.224 32.222-73.278 54.166-117.968 63.055-44.695 8.891-91.021 4.327-133.119-13.111s-78.082-46.969-103.399-84.858c-25.318-37.889-38.83-82.434-38.83-128.003 0.066-61.086 24.364-119.648 67.555-162.845 43.196-43.193 101.761-67.489 162.845-67.555z" />
<glyph unicode="&#xe97e;" glyph-name="close" d="M343.041 447.969l-316.788 316.787c-35.002 35.002-35.002 91.748 0 126.695l42.232 42.232c35.013 35.013 91.759 35.013 126.706 0l316.777-316.777 316.786 316.842c35.005 35.002 91.75 35.002 126.7 0l42.296-42.232c35-35.013 35-91.759 0-126.706l-316.841-316.841 316.774-316.78c35.011-35.011 35.011-91.756 0-126.705l-42.23-42.23c-35.005-35.005-91.75-35.005-126.7 0l-316.786 316.785-316.777-316.785c-35.013-35.005-91.759-35.005-126.706 0l-42.232 42.23c-35.002 35.011-35.002 91.761 0 126.705l316.788 316.78z" />
<glyph unicode="&#xe97f;" glyph-name="complaints" d="M512 748.002c-115.784 0-210-94.218-210-209.999 0-115.784 94.216-210.002 210-210.002 115.78 0 209.999 94.218 209.999 210.002 0 115.781-94.218 209.999-209.999 209.999zM422.001 628.002c16.568 0 30-13.428 30-30 0-16.568-13.431-30-30-30s-30 13.431-30 30c0 16.568 13.431 30 30 30zM618.056 426.851c-11.721-11.721-30.703-11.721-42.424 0-35.096 35.096-92.167 35.096-127.266 0-11.718-11.718-30.703-11.718-42.421 0s-11.718 30.703 0 42.421c58.477 58.477 153.631 58.477 212.111 0 11.718-11.721 11.718-30.703 0-42.421zM601.999 568.003c-16.568 0-30 13.431-30 30 0 16.572 13.431 30 30 30s30-13.428 30-30c0-16.568-13.431-30-30-30zM934.001 928.002h-844.001c-49.628 0-90-40.372-90-90v-600.001c0-49.626 40.372-89.999 90-89.999h92v-149.999c0-26.754 32.448-39.974 51.21-21.21l171.209 171.209h529.582c49.626 0 89.999 40.373 89.999 89.999v600.001c0 49.628-40.373 90-89.999 90zM512 268.001c-148.886 0-270 121.115-270 270.001s121.114 269.999 270 269.999 270.001-121.114 270.001-269.999c0-148.886-121.115-270.001-270.001-270.001z" />
<glyph unicode="&#xe980;" glyph-name="min-deposit" d="M819.2 908.8h-614.399c-112.64 0-204.8-92.16-204.8-204.8 0-87.040 51.2-158.719 128-189.438v189.438c0 20.48 10.241 40.96 20.48 56.32s35.839 20.48 56.32 20.48h614.399c20.481 0 40.959-10.241 56.321-20.48s20.481-35.839 20.481-56.32v-189.438c76.799 30.719 128 102.399 128 189.438 0 112.64-92.16 204.8-204.801 204.8zM819.2 89.601v614.399h-614.399v-614.399c0-56.321 46.080-102.401 102.4-102.401h409.599c56.321 0 102.401 46.080 102.401 102.401zM471.042 427.519l-35.839-35.839c-15.361-15.357-40.963-15.357-56.321 0-15.361 15.361-15.361 40.959 0 56.321l66.558 66.561c35.843 35.838 92.16 35.838 128.003 0l66.558-66.561c15.361-15.361 15.361-40.959 0-56.321-15.361-15.357-40.959-15.357-56.321 0l-35.839 35.839v-215.039c0-20.478-15.361-40.959-40.959-40.959s-40.959 15.361-40.959 40.959v215.039h5.121z" />
<glyph unicode="&#xe981;" glyph-name="bookmaker-questions" d="M398.631 381.805h-215.774c-20.48 0-36.572 16.092-36.572 36.572 0 20.117 16.092 36.572 36.572 36.572h172.617c-10.24 21.942-18.286 44.986-24.138 69.121h-148.48c-20.48 0-36.572 16.458-36.572 36.572s16.092 36.572 36.572 36.572h137.874c-0.366 6.218-0.366 12.068-0.366 18.286 0 43.52 7.314 85.212 20.48 124.342h-209.188c-72.776 0-131.657-59.246-131.657-131.657v-379.611c0-67.658 51.566-123.976 117.76-130.561v-77.165c0-21.577 12.068-40.593 31.452-50.103 7.68-3.655 16.092-5.485 24.138-5.485 12.434 0 24.503 4.022 34.378 12.069l82.286 64.733c44.616 35.471 100.938 55.222 158.356 55.222h253.074c72.41 0 131.657 58.877 131.657 131.291v19.018c-39.134-13.166-80.823-20.48-124.347-20.48-126.535 0-239.175 60.71-310.121 154.696zM416.547 239.178h-233.69c-20.48 0-36.572 16.458-36.572 36.572s16.092 36.572 36.572 36.572h233.69c20.117 0 36.572-16.458 36.572-36.572s-16.454-36.572-36.572-36.572zM708.752 930.742c-174.080 0-315.243-141.532-315.243-315.246 0-174.078 141.164-315.246 315.243-315.246 173.717 0 315.248 141.168 315.248 315.246 0 173.714-141.531 315.246-315.248 315.246zM708.389 412.525c-20.113 0-36.572 16.458-36.572 36.572 0 20.117 16.092 36.572 36.205 36.572h0.367c20.113 0 36.572-16.454 36.572-36.572 0-20.113-16.458-36.572-36.572-36.572zM745.324 581.486v-22.308c0-20.113-16.454-36.572-36.572-36.572-20.113 0-36.572 16.458-36.572 36.572v51.932c0 20.114 16.458 36.572 36.572 36.572 17.191 0 31.454 13.898 31.454 31.452 0 17.188-14.262 31.086-31.454 31.086-17.187 0-31.45-13.898-31.45-31.086 0-20.48-16.458-36.572-36.572-36.572s-36.572 16.092-36.572 36.572c0 57.416 46.812 104.228 104.592 104.228 57.418 0 104.596-46.812 104.596-104.228 0-44.983-28.528-82.652-68.024-97.646z" />
<glyph unicode="&#xe982;" glyph-name="bookmaker-support" d="M999.12 508.344l-69.84 69.827c-16.575 16.575-30.157 49.329-30.157 72.82v98.752c0 46.976-38.376 85.352-85.34 85.377h-98.792c-23.463 0-56.255 13.608-72.834 30.17l-69.827 69.826c-33.178 33.178-87.501 33.178-120.678 0l-69.827-69.876c-16.592-16.575-49.422-30.146-72.835-30.146h-98.752c-46.914 0-85.339-38.376-85.339-85.352v-98.755c0-23.398-13.58-56.256-30.158-72.821l-69.839-69.827c-33.203-33.178-33.203-87.501 0-120.733l69.839-69.827c16.588-16.575 30.158-49.422 30.158-72.82v-98.755c0-46.927 38.426-85.354 85.339-85.354h98.755c23.463 0 56.258-13.578 72.833-30.143l69.827-69.854c33.178-33.15 87.504-33.15 120.682 0l69.827 69.854c16.589 16.575 49.37 30.143 72.834 30.143h98.792c46.961 0 85.337 38.427 85.337 85.354v98.755c0 23.501 13.595 56.255 30.16 72.82l69.837 69.827c33.15 33.232 33.15 87.555 0 120.736zM444.252 255.986l-188.278 188.303 60.341 60.327 127.954-127.952 263.39 263.328 60.324-60.327-323.731-323.68z" />
<glyph unicode="&#xe983;" glyph-name="apple" horiz-adv-x="938" d="M661.056 960.001c-54.593-3.776-118.402-38.72-155.583-84.224-33.922-41.279-61.826-102.592-50.944-162.175 59.648-1.856 121.279 33.92 156.989 80.192 33.411 43.072 58.689 103.999 49.538 166.207zM876.8 616.453c-52.419 65.726-126.082 103.871-195.649 103.871-91.839 0-130.686-43.968-194.496-43.968-65.792 0-115.773 43.84-195.198 43.84-78.015 0-161.087-47.68-213.759-129.216-74.048-114.814-61.376-330.687 58.624-514.557 42.944-65.792 100.287-139.776 175.295-140.414 66.751-0.642 85.568 42.813 175.998 43.264 90.433 0.512 107.585-43.841 174.211-43.138 75.069 0.577 135.551 82.562 178.494 148.351 30.785 47.169 42.24 70.912 66.113 124.16-173.634 66.113-201.473 313.023-29.631 407.808z" />
<glyph unicode="&#xe984;" glyph-name="android" horiz-adv-x="887" d="M70.667 626.1h-2.623c-33.626 0-61.043-27.504-61.043-61.043v-265.772c0-33.673 27.417-61.085 61.043-61.085h2.668c33.626 0 61.043 27.505 61.043 61.085v265.776c-0.045 33.536-27.504 61.040-61.088 61.040zM160.963 196.7c0-30.87 25.23-56.013 56.101-56.013h59.951v-143.558c0-33.713 27.504-61.129 61.043-61.129h2.623c33.672 0 61.129 27.46 61.129 61.129v143.558h83.784v-143.558c0-33.713 27.59-61.129 61.129-61.129h2.58c33.669 0 61.085 27.46 61.085 61.129v143.558h59.996c30.826 0 56.057 25.143 56.057 56.013v419.649h-565.479v-419.649zM584.547 870.841l47.619 73.504c3.062 4.636 1.703 10.975-2.973 13.993-4.635 3.061-10.977 1.792-13.995-2.974l-49.367-76.042c-37.035 15.173-78.401 23.699-122.085 23.699-43.728 0-85.009-8.526-122.131-23.699l-49.28 76.042c-3.016 4.766-9.402 6.035-14.081 2.974-4.679-3.016-6.035-9.357-2.974-13.993l47.662-73.504c-85.925-42.11-143.862-121.474-143.862-212.513 0-5.597 0.351-11.107 0.831-16.572h567.707c0.481 5.465 0.785 10.975 0.785 16.572 0.003 91.039-57.979 170.403-143.858 212.513zM312.127 739.223c-15.086 0-27.33 12.157-27.33 27.286s12.244 27.242 27.33 27.242c15.173 0 27.33-12.112 27.33-27.242s-12.244-27.286-27.33-27.286zM575.321 739.223c-15.087 0-27.331 12.157-27.331 27.286s12.244 27.242 27.331 27.242c15.128 0 27.286-12.112 27.286-27.242s-12.158-27.286-27.286-27.286zM819.36 626.1h-2.536c-33.625 0-61.129-27.504-61.129-61.043v-265.772c0-33.673 27.549-61.085 61.129-61.085h2.58c33.669 0 61.044 27.505 61.044 61.085v265.776c0 33.536-27.464 61.040-61.088 61.040z" />
<glyph unicode="&#xe985;" glyph-name="bookmaker-reviews" d="M898.693 907.329h-773.386c-69.172-0.079-125.231-56.135-125.307-125.31v-460.364c0.076-69.175 56.135-125.232 125.307-125.307h220.289v-187.979c-0.003-10.878 8.81-19.695 19.685-19.695 5.226 0 10.237 2.075 13.93 5.772l201.902 201.902h317.577c69.175 0.075 125.232 56.136 125.307 125.307v460.364c-0.072 69.174-56.129 125.231-125.303 125.31zM640.72 367.104l-128.72 67.673-128.72-67.673 24.583 143.333-104.138 101.508 143.914 20.913 64.362 130.402 64.358-130.405 143.916-20.913-104.141-101.509 24.586-143.329z" />
<glyph unicode="&#xe986;" glyph-name="play" d="M217.831 937.422c-92.319 52.956-167.166 9.574-167.166-96.819v-785.128c0-106.498 74.847-149.826 167.166-96.92l686.242 393.555c92.35 52.976 92.35 138.801 0 191.762l-686.242 393.55z" />
<glyph unicode="&#xe987;" glyph-name="users" d="M305.606 523.779v-266.65c0-34.609 28.242-62.669 62.648-62.669 7.578 0 14.971 1.229 21.73 3.895v-191.078c0-39.322 31.928-71.27 71.25-71.27 19.885 0 37.907 8.19 50.809 21.295 12.902-13.105 30.905-21.295 50.774-21.295 39.322 0 71.288 31.949 71.288 71.27v191.078c6.758-2.666 13.904-3.895 21.486-3.895 34.627 0 62.669 28.060 62.669 62.669v266.65c0 76.391-62.036 138.65-138.651 138.65h-135.373c-76.37 0-138.63-62.258-138.63-138.65zM999.433 229.069v242.076c0 70.245-57.342 127.591-127.795 127.591h-99.509c-10.469 0-19.070-7.578-20.299-17.818l-0.553-4.384c5.142-16.691 7.95-34.406 7.95-52.755v-266.65c0-41.429-24.637-76.941-59.886-93.511l-1.351-10.937c-0.227-1.026-0.227-1.843-0.227-2.66v-147.456c0-36.661 29.921-66.564 66.564-66.564 17.818 0 33.995 7.17 46.080 18.641 11.876-11.471 28.054-18.641 46.080-18.641 36.655 0 66.355 29.903 66.355 66.564v170.594c5.732-1.843 11.674-2.66 17.818-2.66 32.354 0 58.773 26.216 58.773 58.571zM24.567 471.145v-242.076c0-32.354 26.419-58.571 58.757-58.571 6.164 0 12.103 0.817 17.633 2.66v-170.594c0-36.661 29.902-66.564 66.559-66.564 17.818 0 34.202 7.17 46.080 18.617 11.879-11.447 28.262-18.617 46.080-18.617 36.66 0 66.56 29.903 66.56 66.564v147.456c0 0.817 0 1.634-0.205 2.458l-1.392 11.035c-35.328 16.528-60.048 52.101-60.048 93.615v266.65c0 18.534 2.826 36.413 8.070 53.268l-0.492 3.871c-1.229 10.24-10.036 17.818-20.275 17.818h-99.738c-70.245 0-127.59-57.344-127.59-127.591zM91.527 748.65c0-67.175 54.885-121.856 122.061-121.856 67.379 0 122.060 54.681 122.060 121.856 0 67.379-54.681 122.060-122.060 122.060-67.175 0-122.061-54.681-122.061-122.060zM379.526 827.701c0-73.113 59.393-132.506 132.504-132.506 72.911 0 132.299 59.393 132.299 132.506 0 72.909-59.388 132.3-132.299 132.3-73.112 0-132.504-59.391-132.504-132.3zM810.468 870.71c-67.363 0-122.063-54.681-122.063-122.060 0-67.175 54.699-121.856 122.063-121.856 67.172 0 121.854 54.681 121.854 121.856 0 67.379-54.681 122.060-121.854 122.060z" />
<glyph unicode="&#xe988;" glyph-name="subscribe" d="M1023.999 805.209c0-116.404 0-407.506 0-523.906 0-34.721-13.808-68.064-38.339-92.64-24.576-24.525-57.914-38.339-92.635-38.339h-220.281l-132.168-176.222c-6.761-9.002-17.335-14.288-28.577-14.288s-21.815 5.287-28.577 14.288l-132.168 176.222h-220.279c-34.721 0-68.061 13.814-92.637 38.339-24.528 24.576-38.34 57.919-38.34 92.64v523.906c0 34.721 13.813 68.060 38.34 92.636 24.576 24.529 57.916 38.341 92.637 38.341 155.791 0 606.255 0 762.050 0 34.721 0 68.059-13.813 92.635-38.341 24.53-24.576 38.339-57.915 38.339-92.636zM240.711 527.967c-34.197-30.245-58.202-71.824-66.155-118.736-0.096-0.572-0.191-1.143-0.239-1.715-2.047-16.906 3.239-33.909 14.574-46.677 11.335-12.762 27.577-20.050 44.627-20.004 61.917 0 221.566 0 283.528 0.669 16.483 0 32.532 7.241 43.677 19.815 11.191 12.62 16.432 29.383 14.386 46.1-0.051 0.48-0.097 0.954-0.194 1.383-7.573 47.103-31.383 88.778-65.532 119.116-30.341-41.245-79.207-68.013-134.313-68.013s-104.020 26.815-134.358 68.061zM756.092 578.977v59.535c0 19.718-16.003 35.721-35.721 35.721s-35.721-16.003-35.721-35.721v-59.535h-59.531c-19.718 0-35.721-16.003-35.721-35.721s16.003-35.721 35.721-35.721h59.531v-59.536c0-19.719 16.003-35.722 35.721-35.722s35.721 16.003 35.721 35.722v59.536h59.537c19.718 0 35.721 16.003 35.721 35.721s-16.003 35.721-35.721 35.721h-59.537zM375.069 745.674c-65.727 0-119.069-53.343-119.069-119.069s53.343-119.069 119.069-119.069c65.727 0 119.069 53.343 119.069 119.069s-53.343 119.069-119.069 119.069z" />
<glyph unicode="&#xe989;" glyph-name="gift" d="M454.693 391.394c-84.336 0-332.548 0-332.548 0-26.349 0-47.91-21.557-47.91-47.906v-359.585c0-26.351 21.561-47.91 47.91-47.91 0 0 253.406 0 338.14 0 11.271 0 11.271 12.111 11.271 12.111v427.011c0 0-0.004 16.28-16.863 16.28zM901.878 391.394c0 0-249.158 0-332.207 0-20.234 0-17.204-21.072-17.204-21.072v-422.608c0 0-0.165-11.708 12.007-11.708 84.35 0 337.397 0 337.397 0 26.351 0 47.91 21.559 47.91 47.91v359.571c0.007 26.349-21.552 47.906-47.903 47.906zM471.551 674.322c0 0 0 16.234-16.042 16.234-96.060 0-387.466 0-387.466 0-26.349 0-47.91-21.56-47.91-47.906v-149.548c0-26.35 21.56-47.906 47.91-47.906 0 0 292.711 0 388.779 0 14.729 0 14.729 12.775 14.729 12.775v216.351zM955.979 690.556c0 0-291.525 0-388.702 0-14.803 0-14.803-14.105-14.803-14.105v-218.777c0 0 0-12.478 17.996-12.478 96.375 0 385.509 0 385.509 0 26.351 0 47.91 21.557 47.91 47.906v149.548c0 26.346-21.559 47.906-47.91 47.906zM308.601 726.001c-21.92 0-41.942 1.738-59.498 5.169-44.594 8.712-75.243 25.669-93.701 51.834-16.538 23.448-21.599 52.356-15.047 85.924 11.477 58.73 50.919 91.073 111.052 91.073 12.726 0 26.702-1.469 41.543-4.37 37.753-7.375 86.039-29.023 129.171-57.906 73.177-49.009 76.797-79.477 73.153-98.134-5.358-27.414-30.981-47.002-78.336-59.889-31.993-8.705-71.481-13.7-108.336-13.7zM251.41 883.214c-23.288 0-31.292-6.506-35.686-29.009-3.595-18.399 0.939-24.824 2.426-26.936 6.227-8.831 22.447-16.196 45.676-20.73 12.534-2.45 28.021-3.745 44.771-3.745 36.835 0 69.285 5.581 90.818 11.686 1.567 0.444 4 2.297 1.393 3.85-28.15 22.932-79.651 53.554-122.58 61.941-10 1.948-19.027 2.942-26.817 2.942zM716.534 726.001c-36.858 0-76.349 4.995-108.342 13.7-47.359 12.883-72.978 32.475-78.336 59.886-3.641 18.657-0.028 49.125 73.156 98.134 43.125 28.883 91.41 50.531 129.169 57.906 14.841 2.901 28.822 4.37 41.533 4.37 60.15 0 99.587-32.346 111.056-91.076 6.554-33.564 1.495-62.472-15.046-85.92-18.452-26.168-49.104-43.121-93.703-51.834-17.551-3.424-37.574-5.166-59.488-5.166zM624.936 818.805c-2.496-1.449-1.288-3.735 0.007-4.108 21.522-6.188 54.315-11.906 91.585-11.906 16.753 0 32.236 1.295 44.776 3.745 23.224 4.538 39.451 11.899 45.67 20.73 1.495 2.111 6.035 8.537 2.43 26.936-4.396 22.503-12.397 29.009-35.69 29.009-7.789 0-16.807-0.991-26.815-2.946-42.933-8.384-93.813-38.524-121.963-61.46z" />
<glyph unicode="&#xe98a;" glyph-name="author" horiz-adv-x="887" d="M22.224-36.881l-16.068 160.679c-10.182 101.806 54.204 196.226 152.696 223.925 50.406 14.176 100.846 24.596 151.314 31.242 12.526 1.652 24.75-4.69 30.614-15.882l76.264-145.596c7.718-14.735 25.921-20.422 40.653-12.704 5.427 2.843 9.861 7.274 12.704 12.704l76.264 145.596c5.864 11.192 18.087 17.534 30.614 15.882 50.47-6.649 100.908-17.067 151.313-31.242 98.492-27.703 162.877-122.122 152.695-223.925l-16.067-160.679c-1.539-15.394-14.493-27.119-29.969-27.119h-783.061c-15.472 0-28.428 11.725-29.968 27.119zM443.723 448c-141.387 0-256.001 114.616-256.001 256s114.614 256 256.001 256c141.384 0 256-114.616 256-256s-114.616-256-256-256z" />
<glyph unicode="&#xe98b;" glyph-name="added-button" d="M870.4 960h-716.8c-84.5 0-153.6-69.125-153.6-153.6v-716.8c0-84.476 69.1-153.6 153.6-153.6h716.8c84.5 0 153.6 69.124 153.6 153.6v716.8c0 84.475-69.1 153.6-153.6 153.6zM740.352 539.647l-256-256c-10.253-9.724-23.052-14.848-36.352-14.848s-26.1 5.124-36.348 14.848l-128 128c-19.951 19.976-19.951 52.728 0 72.704 19.948 19.972 52.748 19.972 72.7 0l91.648-92.152 219.652 220.152c19.948 19.972 52.748 19.972 72.7 0 19.948-19.976 19.948-52.728 0-72.704z" />
<glyph unicode="&#xe98c;" glyph-name="doc" d="M976.37 781.395v-666.789c0-98.639-79.968-178.606-178.599-178.606h-571.537c-98.639 0-178.605 79.968-178.605 178.606v666.789c0 98.639 79.966 178.605 178.605 178.605h571.537c98.631 0 178.599-79.966 178.599-178.605zM750.142 578.976h-476.279c-19.718 0-35.722-16.002-35.722-35.721s16.003-35.722 35.722-35.722h476.279c19.715 0 35.717 16.003 35.717 35.722s-16.002 35.721-35.717 35.721zM750.142 388.465h-476.279c-19.718 0-35.722-16.003-35.722-35.722s16.003-35.721 35.722-35.721h476.279c19.715 0 35.717 16.002 35.717 35.721s-16.002 35.722-35.717 35.722zM512.001 769.488h-238.14c-19.718 0-35.722-16.003-35.722-35.721s16.003-35.722 35.722-35.722h238.14c19.718 0 35.721 16.003 35.721 35.722s-16.002 35.721-35.721 35.721zM750.142 197.953h-476.279c-19.718 0-35.722-16.002-35.722-35.717 0-19.723 16.003-35.724 35.722-35.724h476.279c19.715 0 35.717 16.002 35.717 35.724 0 19.715-16.002 35.717-35.717 35.717z" />
<glyph unicode="&#xe98d;" glyph-name="soap" horiz-adv-x="960" d="M955.315 293.638l-81.453 296.074c-19.565 71.103-94.586 113.284-167.584 94.227l-604.837-157.832c-73-19.059-116.308-92.127-96.741-163.229l81.45-296.074c19.567-71.104 94.586-113.286 167.586-94.227l604.836 157.869c72.966 19.021 116.275 92.090 96.742 163.194zM680.006 187.322l-300.863-78.502c-101.53-26.586-207.165 32.154-234.6 131.91-27.332 99.357 33.455 201.88 135.43 228.501l300.861 78.5c102.147 26.722 207.196-32.286 234.601-131.91 27.398-99.622-33.146-201.85-135.43-228.499zM749.382 398.561c17.613-64.072-21.35-129.742-87.066-146.9l-300.858-78.502c-65.612-17.094-133.242 20.89-150.824 84.8-17.549 63.869 21.483 129.808 87.060 146.9l300.861 78.499c66.020 17.193 133.24-20.957 150.827-84.797zM350.991 683.605c-35.235 97.292 51.551 194.216 153.869 175.491 27.948 42.149 76.558 68.904 129.068 68.904 57.062 0 108.063-30.72 134.611-77.333 108.474 45.247 222.387-57.442 182.566-167.028-6.33-17.359-25.894-26.422-43.68-20.291-17.824 6.164-27.13 25.189-20.832 42.548 24.045 65.772-59.802 118.449-111.622 70.27-9.101-8.43-22.138-11.329-34.042-7.63-11.936 3.698-20.794 13.46-23.194 25.422-7.693 39.050-42.963 67.404-83.807 67.404-35.713 0-67.014-21.258-79.74-54.11-3.352-8.629-10.194-15.526-18.952-19.025-8.723-3.532-18.575-3.366-27.196 0.433-55.075 24.257-112.511-27.788-92.567-82.831 6.294-17.359-3.044-36.385-20.833-42.515-17.925-6.197-37.423 3.066-43.649 20.291zM155.012 661.448c-66.022 0-119.729 52.31-119.729 116.616s53.707 116.616 119.729 116.616c66.022 0 119.729-52.31 119.729-116.616s-53.707-116.616-119.729-116.616zM155.012 828.043c-28.291 0-51.313-22.424-51.313-49.978s23.022-49.978 51.313-49.978c28.29 0 51.312 22.424 51.312 49.978s-23.022 49.978-51.312 49.978z" />
<glyph unicode="&#xe98e;" glyph-name="like" d="M170.668 592.564h-136.534c-18.85 0-34.134-16.182-34.134-36.143v-578.252c0-19.96 15.282-36.146 34.134-36.146h136.532c18.85 0 34.135 16.186 34.135 36.146v578.255c0 19.958-15.28 36.14-34.133 36.14zM1023.32 496.762c-6.021 56.065-55.479 95.802-108.774 95.802h-266.111c22.616 42.878 34.755 164.152 34.218 213.694-0.893 82.004-65.031 147.719-142.482 147.719h-28.165c-18.866 0-34.135-16.164-34.135-36.142 0-83.574-30.735-234.423-88.699-295.8-39.014-41.309-72.368-56.278-116.102-79.422v-542.299c66.958-23.63 151.974-58.291 281.555-58.291h223.282c73.57 0 130.87 72.146 102.363 148.375 43.437 12.53 75.468 54.704 75.468 104.61 0 14.087-2.567 27.565-7.2 39.956 73.193 21.119 100.137 116.809 49.332 176.896 18.663 22.077 28.954 52.274 25.451 84.904z" />
<glyph unicode="&#xe98f;" glyph-name="share" d="M767.999 448.001c-76.786 0-145.497-33.957-192.41-87.5l-162.495 100.007c8.32 22.834 13.58 47.13 13.58 72.832 0 16.793-2.407 32.947-6.080 48.664l216 99.672c31.285-38.17 78.198-63.003 131.419-63.003 94.208 0 170.66 76.415 170.66 170.662s-76.465 170.662-170.673 170.662c-94.283 0-170.662-76.415-170.662-170.662 0-10.407 1.293-20.454 3.033-30.375l-215.744-99.585c-38.874 52.712-100.835 87.297-171.287 87.297-117.837-0.013-213.337-95.5-213.337-213.337s95.501-213.337 213.337-213.337c61.325 0 116.249 26.253 155.162 67.75l162.252-99.842c-12.007-29.655-18.752-61.952-18.752-95.908 0-141.414 114.584-256 256-256 141.34 0 256 114.585 256 256s-114.66 256-256 256z" />
<glyph unicode="&#xe990;" glyph-name="bell" d="M938.667 495.703c-23.552 0-42.66 19.109-42.66 42.663 0 119.68-46.598 232.148-131.202 316.804-16.685 16.679-16.685 43.641 0 60.327 16.677 16.681 43.643 16.681 60.327 0 100.741-100.734 156.201-234.671 156.201-377.133 0-23.555-19.108-42.663-42.667-42.663zM85.333 495.703c-23.548 0-42.665 19.109-42.665 42.663 0 142.461 55.469 276.398 156.204 377.133 16.679 16.681 43.648 16.681 60.327 0 16.687-16.687 16.687-43.648 0-60.327-84.61-84.609-131.196-197.124-131.196-316.804 0-23.555-19.117-42.663-42.671-42.663zM912.179 238.373c-64.518 54.531-101.513 134.236-101.513 218.673v118.954c0 150.141-111.527 274.43-255.998 295.25v46.086c0 23.594-19.117 42.663-42.663 42.663-23.555 0-42.671-19.070-42.671-42.663v-46.086c-144.508-20.82-256-145.109-256-295.25v-118.954c0-84.437-36.992-164.142-101.884-219.008-16.602-14.213-26.116-34.857-26.116-56.702 0-41.179 33.491-74.67 74.671-74.67h703.999c41.171 0 74.663 33.491 74.663 74.67 0 21.845-9.517 42.49-26.487 57.037zM512.004-64c77.265 0 141.908 55.085 156.756 128h-313.514c14.844-72.915 79.484-128 156.757-128z" />
<glyph unicode="&#xe991;" glyph-name="rating-boot" d="M818.851 706.445c-108.006-108.007-157.111-225.646-209.090-350.164-11.016-26.395-22.188-52.985-33.95-79.613l27.214-27.214c13.333-13.33 34.905-13.33 48.235 0s13.33 34.902 0 48.231l-24.118 24.118 96.469 96.466 24.113-24.113c13.33-13.333 34.905-13.333 48.235 0 13.33 13.33 13.33 34.902 0 48.231l-24.118 24.118 96.466 96.466 24.118-24.118c13.33-13.33 34.905-13.33 48.235 0 13.33 13.333 13.33 34.905 0 48.235l-24.118 24.118 24.118 24.116c6.403 6.405 9.985 15.073 9.985 24.116 0 49.121-13.042 98.745-38.394 140.407l-93.401-93.398zM662.518 951.849c-8.758-7.253-13.166-18.771-11.727-30.145 6.593-53.084-10.812-104.732-47.766-141.683-50.54-50.542-129.938-62.099-195.152-31.082-8.312 3.935-17.874 4.356-26.469 1.179-8.693-3.226-15.596-9.798-19.36-18.134l-71.96-167.306 161.483 0.011c18.84 0 34.102-15.262 34.102-34.102s-15.262-34.102-34.102-34.102l-191.769-0.016-30.284-68.216h161.506c18.84 0 34.102-15.262 34.102-34.102s-15.262-34.102-34.102-34.102h-191.788l-30.281-68.204h161.493c18.84 0 34.102-15.262 34.102-34.102s-15.262-34.106-34.102-34.106l-191.775 0.003-58.418-129.562c-15.428-45.902-4.476-92.322 27.435-124.235 46.185-46.182 122.921-44.575 169.107 1.611l12.716 12.716 24.118-24.118c13.33-13.33 34.902-13.33 48.231 0 13.333 13.33 13.333 34.905 0 48.235l-24.113 24.113c34.397 34.397 62.356 69.872 86.799 106.132l33.783-33.78c13.33-13.33 34.902-13.33 48.231 0s13.33 34.902 0 48.235l-45.134 45.13c33.128 59.468 58.941 121.053 85.41 184.449 52.236 125.15 106.237 254.565 223.781 372.11l99.302 99.3-8.172 8.172c-46.019 46.019-105.022 78.348-167.6 96.509-10.997 3.179-22.868 0.634-31.63-6.809z" />
<glyph unicode="&#xe992;" glyph-name="add-button" d="M845.395 936.185h-666.791c-47.369 0-92.797-18.817-126.292-52.312s-52.312-78.923-52.312-126.292v-619.162c0-47.369 18.817-92.798 52.312-126.293 33.495-33.492 78.923-52.311 126.292-52.311h666.791c47.369 0 92.798 18.818 126.29 52.311 33.496 33.496 52.315 78.925 52.315 126.293v619.162c0 47.369-18.818 92.797-52.315 126.292-33.492 33.495-78.921 52.312-126.29 52.312zM726.325 421.329h-166.697v-166.697c0-12.631-5.017-24.748-13.949-33.678-8.934-8.931-21.047-13.949-33.678-13.949s-24.748 5.017-33.678 13.949c-8.931 8.931-13.949 21.047-13.949 33.678v166.697h-166.698c-12.632 0-24.747 5.017-33.678 13.949s-13.95 21.047-13.95 33.678c0 12.631 5.017 24.748 13.95 33.678s21.046 13.949 33.678 13.949h166.698v166.697c0 12.632 5.017 24.745 13.949 33.678s21.047 13.95 33.678 13.95c12.631 0 24.743-5.017 33.678-13.95 8.931-8.932 13.949-21.046 13.949-33.678v-166.697h166.697c12.631 0 24.743-5.017 33.678-13.949 8.931-8.931 13.949-21.047 13.949-33.678s-5.017-24.748-13.949-33.678c-8.934-8.931-21.047-13.949-33.678-13.949z" />
</font>
</defs>
</svg>
